(Classical) [LP] [24/48] Гаэтано Доницетти - Дон Паскуале \ Gaetano Donizetti - Don Pasquale (Дирижер Хайнц Вальберг)- 1979, FLAC (tracks+.cue)


Статистика раздачи [Обновить пиров]
Размер:  1.18 GB   |    Зарегистрирован:  1 год 1 месяц   |    Скачан:  0 раз

Полного источника не было: Никогда

Личеров:  1  [  0 KB/s  ]   Подробная статистика пиров
 
   
 
 
 

[Цитировать]

Гаэтано Доницетти - Дон Паскуале \ Gaetano Donizetti - Don Pasquale
Жанр: Classical
Носитель: LP
Год выпуска: 1979
Лейбл: Melodya (VSG)
Страна-производитель: USSR
Аудио кодек: FLAC
Тип рипа: tracks+.cue
Формат записи: 32/192
Формат раздачи: 24/48
Продолжительность: 117 min
Комическая опера в трех действиях
Либретто А. Анелли, Дж. Руффини и Г.Доницетти
Треклист:
Disc I:
01. Увертюра
02. Интродукция
03. Речитатив и дуэт
04. Каватина Норины
05. Речитатив и дуэт и финал I действия
06. Вступление, сцена и ария Эрнесто
07. Сцена и терцет
Disc II:
01. Речитатив, квартет и финал II действия
02. Вступительный хор
03. Сцена и дуэт
04. Речитатив дона Паскуале и хор
05. Речитатив и дуэт
06. Серенада и дуэт
07. Сцена, рондо и финал III действия
Хор Баварского Радио. Хормейстер Йозеф Шмидтхубер
Оркестр Баварского Радио. Дирижер Хайнц Вальберг
Источник оцифровки: автором раздачи
Код класса состояния винила: NM
Устройство воспроизведения: Электроника ЭП 017С
Головка звукоснимателя: Audio-Technica AT95
Предварительный усилитель: Бриг-001
АЦП: VIA HD audio device
Программа-оцифровщик: Izotope RX 4 Advanced
Обработка: Manual

Спектр+АЧХ+Уровень записи

DR=13

foobar2000 1.1.10 / Dynamic Range Meter 1.1.1
log date: 2014-12-27 17:28:31
--------------------------------------------------------------------------------
Analyzed: Гаетано Доницетти / Дон Паскуале - Disc I
--------------------------------------------------------------------------------
DR Peak RMS Duration Track
--------------------------------------------------------------------------------
DR14 -3.45 dB -24.86 dB 6:26 ?-Увертюра
DR15 -3.74 dB -24.01 dB 9:13 ?-Интродукция
DR13 -4.17 dB -22.85 dB 9:42 ?-Речитатив и дуэт
DR13 -5.27 dB -24.61 dB 6:08 ?-Каватина Норины
DR12 -3.86 dB -21.88 dB 10:52 ?-Речитатив и дуэт и финал I действия
DR14 -5.32 dB -26.03 dB 8:53 ?-Вступление, сцена и ария Эрнесто
DR12 -5.23 dB -23.49 dB 5:41 ?-Сцена и терцет
--------------------------------------------------------------------------------
Number of tracks: 7
Official DR value: DR13
Samplerate: 48000 Hz
Channels: 2
Bits per sample: 24
Bitrate: 1367 kbps
Codec: FLAC
================================================================================
foobar2000 1.1.10 / Dynamic Range Meter 1.1.1
log date: 2014-12-27 17:34:06
--------------------------------------------------------------------------------
Analyzed: Гаетано Доницетти / Дон Паскуале - Disc II
--------------------------------------------------------------------------------
DR Peak RMS Duration Track
--------------------------------------------------------------------------------
DR12 -3.23 dB -21.06 dB 19:36 ?-Речитатив, квартет и финал II действия
DR12 -4.54 dB -22.52 dB 1:15 ?-Вступительный хор
DR12 -4.15 dB -21.08 dB 10:02 ?-Сцена и дуэт
DR13 -3.39 dB -21.78 dB 5:05 ?-Речитатив дона Паскуале и хор
DR14 -3.67 dB -22.68 dB 10:22 ?-Речитатив и дуэт
DR14 -5.64 dB -25.84 dB 7:20 ?-Серенада и дуэт
DR13 -3.43 dB -21.95 dB 6:54 ?-Сцена, рондо и финал III действия
--------------------------------------------------------------------------------
Number of tracks: 7
Official DR value: DR13
Samplerate: 48000 Hz
Channels: 2
Bits per sample: 24
Bitrate: 1431 kbps
Codec: FLAC
================================================================================

Back,Inner & Disc

[teatrix.ru].t10134.torrent 
Торрент: Зарегистрирован [ 2015-10-25 20:37 ] · D4508D0590FE0AFF8C8CC08947112E792F38149A

Скачать .torrent

Скачать

15 KB

Статус: проверено
Скачан: 0 раз
Размер: 1.18 GB
terms.php



Быстрый ответ

Имя:

      
Для отправки сообщений необходимо включить JavaScript
Показать сообщения:    

Текущее время: 04-Дек 09:10

Часовой пояс: UTC + 3


Вы можете начинать темы
Вы можете отвечать на сообщения
Вы не можете редактировать свои сообщения
Вы не можете удалять свои сообщения
Вы не можете голосовать в опросах
Вы не можете прикреплять файлы к сообщениям
Вы можете скачивать файлы