(Classical) [LP] [24/96] Давид Торадзе - Симфония №2 "Хвала Никорцминде" по одноименному стихотворению Галактиона Табидзе(Дирижер Нээме Ярви) - 1973, FLAC (tracks+.cue)


Статистика раздачи [Обновить пиров]
Размер:  594 MB   |    Зарегистрирован:  1 год 1 месяц   |    Скачан:  2 раза

Полного источника не было: 11 месяцев 24 дня

Личеров:  1  [  0 KB/s  ]   Подробная статистика пиров
 
   
 
 
 

[Цитировать]

Давид Торадзе - Симфония №2 "Хвала Никорцминде" по одноименному стихотворению Галактиона Табидзе (Дирижер Нээме Ярви)
Жанр: Classical
Носитель: LP
Год выпуска: 1973
Лейбл: Melodya
Страна-производитель: USSR
Аудио кодек: FLAC
Тип рипа: tracks+.cue
Формат записи: 32/192
Формат раздачи: 24/96
Продолжительность: 31.38 min
Треклист:
Давид Торадзе
01. Никорцминда
02. Симфония камней
03. Рельефы
Большой симфонический оркестр и женская группа
Большого хора Всесоюзного радио

Хормейстер Людмила Ермакова
Дирижер НЭЭМЕ ЯРВИ
Источник оцифровки: автором раздачи
Код класса состояния винила: Mint
Устройство воспроизведения: Электроника ЭП 017С
Головка звукоснимателя: Audio-Technica AT95
Предварительный усилитель: Бриг-001
АЦП: VIA HD audio device
Программа-оцифровщик: Izotope RX III Advanced
Обработка: Manual

Спектр+АЧХ+Уровень записи


DR=14

foobar2000 1.1.10 / Dynamic Range Meter 1.1.1
log date: 2014-11-21 13:14:37
--------------------------------------------------------------------------------
Analyzed: Давид Торадзе / Симфония №2 "Хвала Никорцминде"
--------------------------------------------------------------------------------
DR Peak RMS Duration Track
--------------------------------------------------------------------------------
DR13 -3.89 dB -24.52 dB 5:37 ?-Никорцминда
DR14 -3.59 dB -23.33 dB 11:53 ?-Симфония камней
DR16 -4.72 dB -26.07 dB 14:08 ?-Рельефы
--------------------------------------------------------------------------------
Number of tracks: 3
Official DR value: DR14
Samplerate: 96000 Hz
Channels: 2
Bits per sample: 24
Bitrate: 2498 kbps
Codec: FLAC
================================================================================

Back,Inside,Disc





[teatrix.ru].t10136.torrent 
Торрент: Зарегистрирован [ 2015-10-25 20:37 ] · 00A391099D20D57F55C106800351AF94F0226EA8

Скачать .torrent

Скачать

13 KB

Статус: проверено
Скачан: 2 раз
Размер: 594 MB
terms.php



Быстрый ответ

Имя:

      
Для отправки сообщений необходимо включить JavaScript
Показать сообщения:    

Текущее время: 04-Дек 04:59

Часовой пояс: UTC + 3


Вы можете начинать темы
Вы можете отвечать на сообщения
Вы не можете редактировать свои сообщения
Вы не можете удалять свои сообщения
Вы не можете голосовать в опросах
Вы не можете прикреплять файлы к сообщениям
Вы можете скачивать файлы