(Classical/Opera) [LP] [24/192] Luciano Pavarotti - The Essential Pavarotti(Verdi, Puccini, Donizetti, Flotow, Bizet, Leoncavallo, Dalla, Tosti, Rossini etc.) - 1991, FLAC (image+.cue)


Статистика раздачи [Обновить пиров]
Размер:  2.62 GB   |    Зарегистрирован:  1 год 1 месяц   |    Скачан:  0 раз

Полного источника не было: Никогда

Личеров:  3  [  0 KB/s  ]   Подробная статистика пиров
 
   
 
 
 

[Цитировать]

Luciano PavarottiThe Essential Pavarotti(Giuseppe Verdi, Giacomo Puccini, Gaetano Donizetti, Flotow, Bizet, Leoncavallo, Dalla, Tosti, Rossini etc.)
Жанр: Classical, Opera
Год выпуска: 1991
Лейбл: Decca – 430 210-1
Страна-производитель: Germany
Аудио кодек: FLAC
Тип рипа: image+.cue
Формат записи: 24/192
Формат раздачи: 24/192
Продолжительность: 01:04:15
Первый из двух альбомов The Essential Pavarotti, изданных Decca. Представляет собой компиляцию известных классических оперных арий и популярных песен в исполнении Luciano Pavarotti, записанных в период с 1974 по 1988 год. Полностью аналоговое издание.
Треклист:
A1 La Donna E Mobile
A2 Che Gelida Manina
A3 E Lucevan Le Stelle
A4 Nessun Dorma
A5 Una Furtiva Lagrima
A6 M'appari
A7 La Fleur Que Tu M'Avais Jetee
A8 Vesti La Giubba
A9 Di Quella Pira
B1 Caruso
B2 Mattinata
B3 Aprile
B4 Core 'Ngrato
B5 La Danza
B6 Volare
B7 Funiculi - Funicula
B8 Torna A Surriento
B9 'O Sole Mio!

Внимание! Время звучания 1 час 04 минут. Соответственно размер файла раздачи 2,62 GB.

Technical details

Источник оцифровки: оцифровано Crimson74
Код класса состояния винила: Good
Устройство воспроизведения: Technics SP-10 MK2
Головка звукоснимателя: Audio Technica ML180
Предварительный усилитель: Kora 3T SE MM
АЦП: Edirol R-44
Обработка: ручная чистка в паузах и тихих местах

DR

foobar2000 1.1.8 / Dynamic Range Meter 1.1.1
log date: 2014-01-26 08:35:29
--------------------------------------------------------------------------------
Analyzed: Pavarotti / The Essential Pavarotti
--------------------------------------------------------------------------------
DR Peak RMS Duration Track
--------------------------------------------------------------------------------
DR12 -3.65 dB -20.19 dB 2:29 01-La Donna E Mobile
DR12 -4.63 dB -23.49 dB 4:44 02-Che Gelida Manina
DR11 -5.06 dB -23.53 dB 3:21 03-E Lucevan Le Stelle
DR11 -4.48 dB -20.49 dB 3:06 04-Nessun Dorma
DR12 -5.58 dB -24.33 dB 4:53 05-Una Furtiva Lagrima
DR13 -3.07 dB -21.52 dB 3:34 06-M'appari
DR12 -4.64 dB -22.88 dB 4:35 07-La Fleur Que Tu M'Avais Jetee
DR12 -4.51 dB -21.91 dB 3:47 08-Vesti La Giubba
DR11 -4.98 dB -19.74 dB 2:19 09-Di Quella Pira
DR12 -3.86 dB -21.45 dB 5:28 10-Caruso
DR10 -6.00 dB -21.16 dB 2:08 11-Mattinata
DR12 -5.12 dB -22.50 dB 3:29 12-Aprile
DR12 -6.20 dB -23.01 dB 5:02 13-Core 'Ngrato
DR14 -3.09 dB -24.17 dB 3:15 14-La Danza
DR13 -7.23 dB -25.10 dB 4:41 15-Volare
DR11 -5.48 dB -21.80 dB 2:51 16-Funiculi - Funicula
DR13 -5.49 dB -23.91 dB 4:33 17-Torna A Surriento
DR13 -5.12 dB -22.78 dB 3:23 18-'O Sole Mio!
--------------------------------------------------------------------------------
Number of tracks: 18
Official DR value: DR12
Samplerate: 192000 Hz
Channels: 2
Bits per sample: 24
Bitrate: 5289 kbps
Codec: FLAC
================================================================================
Состояние винила не идеальное - местами хорошо прослушивается канавка. Особенно с учетом комфортного уровня громкости, который довольно высокий. Но звук исключительно прозрачный. Обработка практически отсутствует. Поэтому прежде чем качать, рекомендуется взять файл семплов, в котором представлены фрагменты двух первых и двух последних треков. И не забудьте распаковать flac.

Спектр

АЧХ

Уровень

Photo


Большое спасибо VH за оформление раздачи.
[teatrix.ru].t10153.torrent 
Торрент: Зарегистрирован [ 2015-10-25 20:37 ] · 00D72B2B3A9F86EDE8DF774A6E6FC4273E1CF92C

Скачать .torrent

Скачать

14 KB

Статус: проверено
Скачан: 0 раз
Размер: 2.62 GB
terms.php



Быстрый ответ

Имя:

      
Для отправки сообщений необходимо включить JavaScript
Показать сообщения:    

Текущее время: 09-Дек 22:27

Часовой пояс: UTC + 3


Вы можете начинать темы
Вы можете отвечать на сообщения
Вы не можете редактировать свои сообщения
Вы не можете удалять свои сообщения
Вы не можете голосовать в опросах
Вы не можете прикреплять файлы к сообщениям
Вы можете скачивать файлы