Губительный город / Pestilent City / Катушки 8 мм / 8mm reels (Питер Эммануэль Голдман / Peter Emmanuel Goldman) [1965, США, короткий метр, документальный, экспериментальный, DVDRip]


Статистика раздачи [Обновить пиров]
Размер:  580 MB   |    Зарегистрирован:  1 год 1 месяц   |    Скачан:  0 раз

Полного источника не было: Никогда

 
   
 
 
 

[Цитировать]

Короткометражные работы Питера Э. Голдмана
Губительный город / Pestilent City
Страна: США
Жанр: короткий метр, документальный
Год выпуска: 1965
Продолжительность: 00:15:27
Перевод: Не требуется
Оригинальная аудиодорожка: отсутствует
Режиссер: Питер Эммануэль Голдман / Peter Emmanuel Goldman
В ролях: не обозначены
Описание: Грязь и нищета Нью-Йорка. Голдман снял свой фильм об этом городе – весьма нелицеприятный. Изменяющийся темп фильма, смена кадров, их экспрессивность, мрачный колорит – всё работает слаженно и чётко. У Голдмана получился сильный фильм о Нью-Йорке, работа, которая свидетельствует о его силе как документалиста, зоркого оператора и уверенного монтажёра. Жаль, что ему удалось снять так мало фильмов.
Катушки 8 мм / 8mm reels
Страна: США
Жанр: короткий метр, экспериментальный
Год выпуска: 1965
Продолжительность: 00:24:11
Перевод: не требуется
Оригинальная аудиодорожка: отсутствует
Режиссер: Питер Эммануэль Голдман / Peter Emmanuel Goldman
В ролях: не обозначены
Описание: Незатейливые и необязательные сценки, снятые на восьмимиллиметровую камеру: сабвей, улицы Нью-Йорка, свободные юноши и девушки, танцы, пляж, флирт, крупные планы лиц.
Доп. информация: Огромная благодарность Pinheaddd (КГ).

Два эссе о фильме Питера Эммануэля Голдмана "Отзвуки тишины"

http://cineticle.com/art/1083-echoes-of-silence.html

Сэмплы

Губительный город
http://multi-up.com/985824
Катушки 8 мм
http://multi-up.com/985825

Технические данные

Губительный город
Качество видео: DVDRip
Формат видео: AVI
Видео: XviD build 64 at 1784 kbps, 0.23 bit/pixel, 640x480 (1.33:1) at 25 fps
Аудио: AC3 Dolby Digital at 320 kbps, 2/0 (L,R) ch, 48 kHz
Катушки 8 мм
Качество видео: DVDRip
Формат видео: AVI
Видео: XviD build 64 at 1797 kbps, 0.23 bit/pixel, 640x480 (1.33:1) at 25 fps
Аудио: AC3 Dolby Digital at 192 kbps, 2/0 (L,R) Surround Encoded ch, 48 kHz

MediaInfo

Губительный город
Формат : AVI
Формат/Информация : Audio Video Interleave
Размер файла : 234 Мбайт
Продолжительность : 15 м.
Общий поток : 2114 Кбит/сек
Программа кодирования : VirtualDubMod 1.5.10.2 (build 2540/release)
Библиотека кодирования : VirtualDubMod build 2540/release
Видео
Идентификатор : 0
Формат : MPEG-4 Visual
Профиль формата : Advanced Simple@L5
Параметр BVOP формата : 1
Параметр QPel формата : Нет
Параметр GMC формата : Без точки перехода
Параметр матрицы формата : Default (MPEG)
Идентификатор кодека : XVID
Идентификатор кодека/Подсказка : XviD
Продолжительность : 15 м.
Битрейт : 1785 Кбит/сек
Ширина : 640 пикс.
Высота : 480 пикс.
Соотношение сторон : 4:3
Частота кадров : 25,000 кадр/сек
Цветовое пространство : YUV
Подвыборка цветности : 4:2:0
Битовая глубина : 8 бит
Тип развёртки : Прогрессивная
Метод сжатия : С потерями
Бит/(Пиксели*Кадры) : 0.232
Размер потока : 197 Мбайт (84%)
Библиотека кодирования : XviD 64
Аудио
Идентификатор : 1
Формат : AC-3
Формат/Информация : Audio Coding 3
Расширение режима : CM (complete main)
Идентификатор кодека : 2000
Продолжительность : 15 м.
Вид битрейта : Постоянный
Битрейт : 320 Кбит/сек
Канал(ы) : 2 канала(ов)
Расположение каналов : Front: L R
Частота : 48,0 КГц
Битовая глубина : 16 бит
Метод сжатия : С потерями
Размер потока : 35,4 Мбайт (15%)
Выравнивание : Разделение по промежуткам
Продолжительность промежутка : 40 мс. (1,00 видеокадр)
Время предзагрузки промежутка : 500 ms
Катушки 8 мм
Формат : AVI
Формат/Информация : Audio Video Interleave
Размер файла : 346 Мбайт
Продолжительность : 24 м.
Общий поток : 1999 Кбит/сек
Программа кодирования : VirtualDubMod 1.5.10.2 (build 2540/release)
Библиотека кодирования : VirtualDubMod build 2540/release
Видео
Идентификатор : 0
Формат : MPEG-4 Visual
Профиль формата : Advanced Simple@L5
Параметр BVOP формата : 1
Параметр QPel формата : Нет
Параметр GMC формата : Без точки перехода
Параметр матрицы формата : Default (MPEG)
Идентификатор кодека : XVID
Идентификатор кодека/Подсказка : XviD
Продолжительность : 24 м.
Битрейт : 1797 Кбит/сек
Ширина : 640 пикс.
Высота : 480 пикс.
Соотношение сторон : 4:3
Частота кадров : 25,000 кадр/сек
Цветовое пространство : YUV
Подвыборка цветности : 4:2:0
Битовая глубина : 8 бит
Тип развёртки : Прогрессивная
Метод сжатия : С потерями
Бит/(Пиксели*Кадры) : 0.234
Размер потока : 311 Мбайт (90%)
Библиотека кодирования : XviD 64
Аудио
Идентификатор : 1
Формат : AC-3
Формат/Информация : Audio Coding 3
Профиль формата : Dolby Digital
Расширение режима : CM (complete main)
Идентификатор кодека : 2000
Продолжительность : 24 м.
Вид битрейта : Постоянный
Битрейт : 192 Кбит/сек
Канал(ы) : 2 канала(ов)
Расположение каналов : Front: L R
Частота : 48,0 КГц
Битовая глубина : 16 бит
Метод сжатия : С потерями
Размер потока : 33,2 Мбайт (10%)
Выравнивание : Разделение по промежуткам
Продолжительность промежутка : 40 мс. (1,00 видеокадр)
Время предзагрузки промежутка : 500 ms

Скриншоты c названиями фильмов

Губительный город

Катушки 8 мм

Скриншоты

Губительный город



Катушки 8 мм


[teatrix.ru].t10157.torrent 
Торрент: Зарегистрирован [ 2015-10-26 00:50 ] · F656CD7D8BA06E4E6EE75DB36D906DB0AD930490

Скачать .torrent

Скачать

23 KB

Статус: проверено
Скачан: 0 раз
Размер: 580 MB
terms.php



Быстрый ответ

Имя:

      
Для отправки сообщений необходимо включить JavaScript
Показать сообщения:    

Текущее время: 05-Дек 07:25

Часовой пояс: UTC + 3


Вы можете начинать темы
Вы можете отвечать на сообщения
Вы не можете редактировать свои сообщения
Вы не можете удалять свои сообщения
Вы не можете голосовать в опросах
Вы не можете прикреплять файлы к сообщениям
Вы можете скачивать файлы