Случай / Przypadek (Кшиштоф Кесьлёвский / Krzysztof Kieslowski) [1981, Польша, драма, HDRip] [1981 Cut] DVO (Кармен Видео) + Sub Rus, Eng + Original Pol


 

[Цитировать]

Случай / Przypadek
Страна: Польша
Жанр: драма
Год выпуска: 1981
Продолжительность: 02:03:17
Перевод: Профессиональный (двухголосый закадровый) - Кармен Видео
Cубтитры: русские (на места без перевода), русские (полные), английские
Оригинальная аудиодорожка: польский

Режиссер: Кшиштоф Кесьлёвский / Krzysztof Kieslowski
В ролях: Богуслав Линда, Тадеуш Ломницкий, Збигнев Запасевич, Богуслава Павелец, Мажена Трыбала, Яцек Борковский, Яцек Сас-Ухрыновский, Адам Ференци, Зыгмунт Хюбнер, Ирена Бырская, Стефания Ивиньская
Описание: В фильме автор проигрывает три различных варианта биографии своего героя — все события картины рассматриваются как бы в сослагательном наклонении: что было бы, если бы его судьба сложилась именно так, а не иначе.
Доп. информация: Версия 1981 года. Включает ранее вырезанные фрагменты (~ 4 мин.). На неозвученные фрагменты субтитры.
Качество видео: HDRip
Формат видео: AVI
Видео: 720x416 (1.73:1), 23.976 fps, XviD build 73 ~2140 kbps avg, 0.30 bit/pixel
Аудио: 48 kHz, AC3 Dolby Digital, 2/0 (L,R) ch, ~192 kbps - двухголосый
Аудио: 48 kHz, AC3 Dolby Digital, 2/0 (L,R) ch, ~192 kbps - оригинал

MediaInfo

Общее
Полное имя : H:\Przypadek.1981.hdrip_[2.18]_[teko]\Przypadek.1981.hdrip_[2.18].avi
Формат : AVI
Формат/Информация : Audio Video Interleave
Профиль формата : OpenDML
Размер файла : 2,19 Гбайт
Продолжительность : 2 ч. 3 м.
Общий поток : 2538 Кбит/сек
Программа кодирования : VirtualDubMod 1.5.10.3 | www.virtualdub-fr.org || (build 2550/release)
Библиотека кодирования : VirtualDubMod build 2550/release
Видео
Идентификатор : 0
Формат : MPEG-4 Visual
Профиль формата : Advanced Simple@L5
Параметр BVOP формата : 1
Параметр QPel формата : Нет
Параметр GMC формата : Без точки перехода
Параметр матрицы формата : Выборочная
Идентификатор кодека : XVID
Идентификатор кодека/Подсказка : XviD
Продолжительность : 2 ч. 3 м.
Битрейт : 2136 Кбит/сек
Ширина : 720 пикселей
Высота : 416 пикселей
Соотношение сторон : 1,731
Частота кадров : 23,976 кадра/сек
Цветовое пространство : YUV
Субдискретизация насыщенности : 4:2:0
Битовая глубина : 8 бит
Тип развёртки : Прогрессивная
Метод сжатия : С потерями
Бит/(Пиксели*Кадры) : 0.297
Размер потока : 1,84 Гбайт (84%)
Библиотека кодирования : XviD 73
Аудио #1
Идентификатор : 1
Формат : AC-3
Формат/Информация : Audio Coding 3
Расширение режима : CM (complete main)
Параметр Endianness формата : Big
Идентификатор кодека : 2000
Продолжительность : 2 ч. 3 м.
Вид битрейта : Постоянный
Битрейт : 192 Кбит/сек
Каналы : 2 канала
Расположение каналов : Front: L R
Частота : 48,0 КГц
Битовая глубина : 16 бит
Метод сжатия : С потерями
Размер потока : 169 Мбайт (8%)
Выравнивание : Разделение по промежуткам
Продолжительность промежутка : 42 мс. (1,00 видеокадр)
Время предзагрузки промежутка : 500 мс.
Аудио #2
Идентификатор : 2
Формат : AC-3
Формат/Информация : Audio Coding 3
Расширение режима : CM (complete main)
Параметр Endianness формата : Big
Идентификатор кодека : 2000
Продолжительность : 2 ч. 3 м.
Вид битрейта : Постоянный
Битрейт : 192 Кбит/сек
Каналы : 2 канала
Расположение каналов : Front: L R
Частота : 48,0 КГц
Битовая глубина : 16 бит
Метод сжатия : С потерями
Размер потока : 169 Мбайт (8%)
Выравнивание : Разделение по промежуткам
Продолжительность промежутка : 42 мс. (1,00 видеокадр)
Время предзагрузки промежутка : 500 мс.
[



Показать сообщения:    

Текущее время: 04-Дек 09:10

Часовой пояс: UTC + 3


Вы не можете начинать темы
Вы не можете отвечать на сообщения
Вы не можете редактировать свои сообщения
Вы не можете удалять свои сообщения
Вы не можете голосовать в опросах
Вы не можете прикреплять файлы к сообщениям
Вы не можете скачивать файлы