Le Concert de Paris 14.07.2015 / Концерт в Париже 14.07.2015 (Gatti, DiDonato, Chen, Sartori, Lang Lang, Terfel, Fuchs, Capucon, Remigio) [2015, classical, concert, HDTVRip-AVC]


Статистика раздачи [Обновить пиров]
Размер:  1.86 GB   |    Зарегистрирован:  1 год 1 месяц   |    Скачан:  0 раз

Полного источника не было: Никогда

 
   
 
 
 

[Цитировать]

Le Concert de Paris 14.07.2015 / Концерт в Париже 14.07.2015
Год выпуска: 2015
Страна-производитель: Франция
Жанр: classical, concert
Продолжительность: 01:46:39
Исполнители:
L'Orchestre National de France
Le Choeur et la Maitrise de Radio France
Дирижер: Daniele Gatti
Описание: концерт в честь Дня взятия Бастилии
Доп. информация: Фейерверк, завершивший концерт тут
Запись осуществлена Mauricelugher
Качество видео: HDTVRip-AVC
Формат/Контейнер: MKV
Видео кодек: H.264
Аудио кодек: MP2
Видео поток: 960x540 25fps 1848Kbps
Аудио поток: 48000Hz stereo 384Kbps

Треклист

00:00 Carl Orff Carmina Burana (Tempus est iocundum - Finale)
00:15:40 Harold Arlen Somewhere over the rainbow - Joyce DiDonato
00:21:50 Fritz Kreisler Le Tambourin - Ray Chen
00:26:20 Giacomo Puccini Turandot (Nessun dorma) - Fabio Sartori
00:30:40 Leonard Bernstein Candide (Ouverture)
00:35:50 Giuseppe Verdi Nabucco (Va pensiero)
00:41:50 George Gershwin Rhapsody in Blue (extrait) - Lang Lang
00:49:45 Wolfgang Amadeus Mozart Don Giovanni (La ci darem la mano) - Joyce DiDonato, Bryn Terfel
00:54:30 Giacomo Puccini Tosca (Te Deum) - Bryn Terfel
00:59:45 Сергей Рахманинов Vocalise Julie Fuchs
01:05:27 Johann Strauss Radetzky March
01:09:45 Jules Massenet Meditation de Thais - Gautier Capuçon
01:16:43 Aram Khachaturian Danse du Sabre
01:19:35 Giacomo Puccini Madame Butterfly (Un bel dì vedremo) - Carmela Remigio
01:25:25 Jacques Offenbach Les Contes d'Hoffmann (Barcarolle) Joyce DiDonato, Julie Fuchs
01:30:46 Giuseppe Verdi Aida (Gloria all'Egitto)
01:39:00 Leonard Bernstein West side story (Mambo)
01:41:50 Hector Berlioz La Marseillaise

MI

Format : Matroska
Format version : Version 2
File size : 1.70 GiB
Duration : 1h 46mn
Overall bit rate : 2 277 Kbps
Encoded date : UTC 2015-10-23 17:24:55
Writing application : mkvmerge v5.8.0 ('No Sleep / Pillow') built on Sep 2 2012 15:37:04
Writing library : libebml v1.2.3 + libmatroska v1.3.0
Video
ID : 1
Format : AVC
Format/Info : Advanced Video Codec
Format profile : High@L4.1
Format settings, CABAC : Yes
Format settings, ReFrames : 8 frames
Codec ID : V_MPEG4/ISO/AVC
Duration : 1h 46mn
Bit rate : 1 848 Kbps
Width : 960 pixels
Height : 540 pixels
Display aspect ratio : 16:9
Frame rate mode : Constant
Frame rate : 25.000 fps
Color space : YUV
Chroma subsampling : 4:2:0
Bit depth : 8 bits
Scan type : Progressive
Bits/(Pixel*Frame) : 0.143
Stream size : 1.38 GiB (81%)
Writing library : x264 core 125 r2208 d9d2288
Encoding settings : cabac=1 / ref=8 / deblock=1:-1:-1 / analyse=0x3:0x133 / me=umh / subme=9 / psy=1 / psy_rd=1.00:0.10 / mixed_ref=1 / me_range=24 / chroma_me=1 / trellis=2 / 8x8dct=1 / cqm=0 / deadzone=21,11 / fast_pskip=1 / chroma_qp_offset=-3 / threads=6 / lookahead_threads=1 / sliced_threads=0 / nr=0 / decimate=1 / interlaced=0 / bluray_compat=0 / constrained_intra=0 / bframes=3 / b_pyramid=2 / b_adapt=2 / b_bias=0 / direct=1 / weightb=1 / open_gop=0 / weightp=2 / keyint=250 / keyint_min=25 / scenecut=40 / intra_refresh=0 / rc_lookahead=60 / rc=crf / mbtree=1 / crf=25.0 / qcomp=0.60 / qpmin=0 / qpmax=69 / qpstep=4 / ip_ratio=1.40 / aq=1:1.00
Default : Yes
Forced : No
Audio
ID : 2
Format : MPEG Audio
Format version : Version 1
Format profile : Layer 2
Codec ID : A_MPEG/L2
Codec ID/Hint : MP2
Duration : 1h 46mn
Bit rate mode : Constant
Bit rate : 384 Kbps
Channel(s) : 2 channels
Sampling rate : 48.0 KHz
Compression mode : Lossy
Stream size : 293 MiB (17%)
Default : Yes
Forced : No
[teatrix.ru].t10160.torrent 
Торрент: Зарегистрирован [ 2015-10-26 21:16 ] · 571C192E8626BD54BDBD691657372C7C10A5C6F8

Скачать .torrent

Скачать

19 KB

Статус: проверено
Скачан: 0 раз
Размер: 1.86 GB
terms.php



Быстрый ответ

Имя:

      
Для отправки сообщений необходимо включить JavaScript
Показать сообщения:    

Текущее время: 09-Дек 14:41

Часовой пояс: UTC + 3


Вы можете начинать темы
Вы можете отвечать на сообщения
Вы не можете редактировать свои сообщения
Вы не можете удалять свои сообщения
Вы не можете голосовать в опросах
Вы не можете прикреплять файлы к сообщениям
Вы можете скачивать файлы