Сердце небес / Сердце рая / Himlens Hjarta / Heaven's Heart (Симон Стахо / Simon Staho) [2008, Швеция, Дания, Драма, DVDRip] VO


Статистика раздачи [Обновить пиров]
Размер:  667 MB   |    Зарегистрирован:  1 год 1 месяц   |    Скачан:  0 раз

Полного источника не было: Никогда

Личеров:  1  [  0 KB/s  ]   Подробная статистика пиров
 
   
 
 
 

[Цитировать]

Сердце небес / Сердце рая / Himlens Hjärta / Heaven's Heart
Страна: Швеция - Дания
Жанр: Драма
Год выпуска: 2008
Продолжительность: 01:31:35
Перевод: Одноголосый закадровый (Валерий Феодосов)
Cубтитры: нет
Режиссер: Симон Стахо / Simon Staho
В ролях: Микаэль Персбрандт, Лена Эндре, Якоб Эклунд, Мария Лундквист
Описание: Камерная психологическая драма о двух супружеских парах, которые однажды за ужином затевают дискуссию об адюльтере.
Этот фильм - пример того, как минимальными средствами можно создать произведение искусства небывалой художественной высоты. На основе банального, в общем-то, сюжета. Игра актеров потрясает. Следить за их мимикой во время диалогов - истинное удовольствие.
Доп. информация: Русские субтитры - Wahnfried
Сэмпл: http://sendfile.su/1168342
Качество видео: DVDRip
Формат видео: AVI
Видео: DivX, 704x378, 16:9, 25 fps, 817 kbps
Аудио: 48 kHz, MPEG Layer 3, 2 ch, ~192.00 kbps avg

MediaInfo

Format : AVI
Format/Info : Audio Video Interleave
File size : 667 MiB
Duration : 1h 31mn
Overall bit rate : 1 018 Kbps
Writing library : VirtualDub build 35491/release
Video #0
ID : 0
Format : MPEG-4 Visual
Format profile : Simple@L3
Format settings, BVOP : No
Format settings, QPel : No
Format settings, GMC : No warppoints
Format settings, Matrix : Default (H.263)
Codec ID : DIVX
Codec ID/Info : Project Mayo
Codec ID/Hint : DivX 4
Duration : 1h 31mn
Bit rate : 817 Kbps
Width : 704 pixels
Height : 378 pixels
Display aspect ratio : 1.85:1
Frame rate : 25.000 fps
Color space : YUV
Chroma subsampling : 4:2:0
Bit depth : 8 bits
Scan type : Progressive
Compression mode : Lossy
Bits/(Pixel*Frame) : 0.123
Stream size : 535 MiB (80%)
Writing library : XviD 1.1.2 (UTC 2006-11-01)
Audio #1
ID : 1
Format : MPEG Audio
Format version : Version 1
Format profile : Layer 3
Mode : Joint stereo
Codec ID : 55
Codec ID/Hint : MP3
Duration : 1h 31mn
Bit rate mode : Constant
Bit rate : 192 Kbps
Channel(s) : 2 channels
Sampling rate : 48.0 KHz
Compression mode : Lossy
Stream size : 126 MiB (19%)
Alignment : Split accross interleaves
Interleave, duration : 40 ms (1.00 video frame)
Interleave, preload duration : 500 ms

Скриншот c названием фильма

Скриншоты

[teatrix.ru].t10161.torrent 
Торрент: Зарегистрирован [ 2015-10-27 01:17 ] · 9EADBF561EFC935BD25AB9FE2FD1C5EC299873A9

Скачать .torrent

Скачать

14 KB

Статус: проверено
Скачан: 0 раз
Размер: 667 MB
terms.php



Быстрый ответ

Имя:

      
Для отправки сообщений необходимо включить JavaScript
Показать сообщения:    

Текущее время: 08-Дек 10:51

Часовой пояс: UTC + 3


Вы можете начинать темы
Вы можете отвечать на сообщения
Вы не можете редактировать свои сообщения
Вы не можете удалять свои сообщения
Вы не можете голосовать в опросах
Вы не можете прикреплять файлы к сообщениям
Вы можете скачивать файлы