(Opera) Римский-Корсаков - Кащей Бессмертный / Rimsky-Korsakov - Kashchey the Immortal (Понтрягин, Градова, Рождественская - СССР радио симфонический оркестр, Самосуд) - 2008, APE (image+.cue) lossless


 

[Цитировать]

Nicolai Rimsky-Korsakov - Kashchey the Immortal
Жанр: Opera
Страна-производитель диска: Germany
Год издания диска: 2008
Издатель (лейбл): Cantus Classics
Номер по каталогу: 5.01106
Дата записи: 1949
Аудиокодек: APE
Тип рипа: image+.cue
Битрейт аудио: lossless
Продолжительность: 36'17+34'46
Источник: собственный рип
Наличие сканов в содержимом раздачи: да
Треклист:
CD1
1. Scene I, Introduction
2. Scene I, Tsarevna's Song "Dni bez prosveta"
3. Scene I, Scene & Terzetto - "Ya vizhu devu krasoty chudesnoy..."
4. Scene I, Kashchey's Arioso & Scene - "Temny eyo ochi..."
5. Scene I, Chorus - "Vy, gusli-samogudy..."
6. Scene II, Entr'acte
7. Scene II, Kascheyevna's Aria - "Nastala noch"
CD2
8. Scene II, Ivan-Korolevich's Aria - "Gluhaya noch, dorogi dalshe net"
9. Scene II, Scene & Duet of Ivan-Korolevich and Kascheyevna - "Dobro pozhalovat"
10. Scene II, Scene & Terzetto - "Zasnul...Tvoy chas nastal..."
11. Scene III, Entr'acte
12. Scene III, Tsarevna's Lullaby "Bayu-bay, Kashchey sedoy"
13. Scene III, Scene & Duet of Tsarevna and Ivan-Korolevich - "Kashcheev terem vot tebe"
14. Scene III, Scene - "Bezhat naprasno hochesh..."
15. Scene III, Quartet & Final - "Prosti, Lyubimyi korolevich moy"
Исполнители:
Nicolai Rimsky-Korsakov - Kashchey the Immortal
Kashchei Immortal - Pavel Pontryagin, tenor
Princess Beloved Beauty - Natalia Rozhdestvenskaya, soprano
Ivan Korolevich - Pavel Lisitsian, baritone
Kashcheyevna - ludmilla Legostaeva, mezzo-soprano
Storm-Bogatyr - Konstantin Polyayev, bass
USSR Radio Symphony Orchestra
Samuel Samosud

Лог создания рипа

CD1

Exact Audio Copy V1.0 beta 6 from 9. April 2015
EAC extraction logfile from 26. October 2015, 13:47
Lisitsian_Rozhdestvenskaja_Pontryagin_Legostaeva_USSR_RSO_Samosud / Rimsky-Korsakov - Kashchey the Immortal, Samosud CD1
Used drive : TSSTcorpCDDVDW SE-208AB Adapter: 1 ID: 1
Read mode : Secure
Utilize accurate stream : Yes
Defeat audio cache : Yes
Make use of C2 pointers : No
Read offset correction : 6
Overread into Lead-In and Lead-Out : No
Fill up missing offset samples with silence : Yes
Delete leading and trailing silent blocks : No
Null samples used in CRC calculations : Yes
Used interface : Native Win32 interface for Win NT & 2000
Used output format : Monkey's Audio Lossless Encoder
Selected bitrate : High Lossless Compression
Quality : High
Add ID3 tag : Yes
Command line compressor : C:\Program Files (x86)\Exact Audio Copy\MAC\MAC.exe
TOC of the extracted CD
Track | Start | Length | Start sector | End sector
---------------------------------------------------------
1 | 0:00.00 | 1:31.43 | 0 | 6867
2 | 1:31.43 | 3:51.67 | 6868 | 24259
3 | 5:23.35 | 5:27.65 | 24260 | 48849
4 | 10:51.25 | 4:10.50 | 48850 | 67649
5 | 15:02.00 | 6:49.52 | 67650 | 98376
6 | 21:51.52 | 7:22.32 | 98377 | 131558
7 | 29:14.09 | 7:02.70 | 131559 | 163278
Range status and errors
Selected range
Filename D:\EAC\Rimsky-Korsakov - Kashchey the Immortal, Samosud CD1.wav
Peak level 84.5 %
Extraction speed 1.8 X
Range quality 100.0 %
Test CRC 0F643C44
Copy CRC 0F643C44
Copy OK
No errors occurred
AccurateRip summary
Track 1 cannot be verified as accurate (confidence 1) [A7B16DCD], AccurateRip returned [A2D53B44] (AR v2)
Track 2 cannot be verified as accurate (confidence 1) [A21A437A], AccurateRip returned [820BB3D2] (AR v2)
Track 3 cannot be verified as accurate (confidence 1) [4AD7D542], AccurateRip returned [71A94734] (AR v2)
Track 4 cannot be verified as accurate (confidence 1) [B9EF0665], AccurateRip returned [900821E0] (AR v2)
Track 5 cannot be verified as accurate (confidence 1) [B93714F4], AccurateRip returned [92C2E7ED] (AR v2)
Track 6 cannot be verified as accurate (confidence 1) [DD3B2786], AccurateRip returned [EB551731] (AR v2)
Track 7 cannot be verified as accurate (confidence 1) [5811A1FB], AccurateRip returned [2438774A] (AR v2)
No tracks could be verified as accurate
You may have a different pressing from the one(s) in the database
End of status report
---- CUETools DB Plugin V2.1.6
[CTDB TOCID: jw8a0sbnEKfrY5YJaGfo0PSRsqo-] disk not present in database
Submit result: jw8a0sbnEKfrY5YJaGfo0PSRsqo- has been uploaded
==== Log checksum 66BDFF9FABA5FD1122B2C842992C1F4F381E4C1AB71E7913AD30AED903C014B1 ====

CD2

Exact Audio Copy V1.0 beta 6 from 9. April 2015
EAC extraction logfile from 26. October 2015, 13:47
Lisitsian_Rozhdestvenskaja_Pontryagin_Legostaeva_USSR_RSO_Samosud / Rimsky-Korsakov - Kashchey the Immortal, Samosud CD2
Used drive : TS8XDVDSTRANSCEND Adapter: 1 ID: 2
Read mode : Secure
Utilize accurate stream : Yes
Defeat audio cache : Yes
Make use of C2 pointers : No
Read offset correction : 6
Overread into Lead-In and Lead-Out : No
Fill up missing offset samples with silence : Yes
Delete leading and trailing silent blocks : No
Null samples used in CRC calculations : Yes
Used interface : Native Win32 interface for Win NT & 2000
Used output format : Monkey's Audio Lossless Encoder
Selected bitrate : High Lossless Compression
Quality : High
Add ID3 tag : Yes
Command line compressor : C:\Program Files (x86)\Exact Audio Copy\MAC\MAC.exe
TOC of the extracted CD
Track | Start | Length | Start sector | End sector
---------------------------------------------------------
1 | 0:00.00 | 3:39.35 | 0 | 16459
2 | 3:39.35 | 5:58.61 | 16460 | 43370
3 | 9:38.21 | 6:20.52 | 43371 | 71922
4 | 15:58.73 | 3:28.03 | 71923 | 87525
5 | 19:27.01 | 3:52.44 | 87526 | 104969
6 | 23:19.45 | 4:40.21 | 104970 | 125990
7 | 27:59.66 | 4:23.65 | 125991 | 145780
8 | 32:23.56 | 2:22.54 | 145781 | 156484
Range status and errors
Selected range
Filename D:\EAC\Rimsky-Korsakov - Kashchey the Immortal, Samosud CD2.wav
Peak level 99.9 %
Extraction speed 1.8 X
Range quality 100.0 %
Test CRC 0494E448
Copy CRC 0494E448
Copy OK
No errors occurred
AccurateRip summary
Track 1 accurately ripped (confidence 1) [37779D81] (AR v1)
Track 2 accurately ripped (confidence 1) [FBD57894] (AR v1)
Track 3 accurately ripped (confidence 1) [E48AA47A] (AR v1)
Track 4 accurately ripped (confidence 1) [634684C4] (AR v1)
Track 5 accurately ripped (confidence 1) [D80C7CB6] (AR v1)
Track 6 accurately ripped (confidence 1) [E54BC3F0] (AR v1)
Track 7 accurately ripped (confidence 1) [BAE23992] (AR v1)
Track 8 accurately ripped (confidence 1) [4852819D] (AR v1)
All tracks accurately ripped
End of status report
---- CUETools DB Plugin V2.1.6
[CTDB TOCID: eXnAUMkKRr6i5ORJqajUn6FhZC8-] disk not present in database
Submit result: unrecognized or virtual drive
==== Log checksum 2E0E17D97D35DBAAD8811A8682531B7ABD60C213E1862C1BF5F76D2A19909E6D ====

Содержание индексной карты (.CUE)

CD1

REM GENRE Opera
REM DATE 1949
REM DISCID 4E088107
REM COMMENT "ExactAudioCopy v1.0b6"
PERFORMER "Lisitsian_Rozhdestvenskaja_Pontryagin_Legostaeva_USSR_RSO_Samosud"
TITLE "Rimsky-Korsakov - Kashchey the Immortal, Samosud CD1"
FILE "Rimsky-Korsakov - Kashchey the Immortal, Samosud CD1.ape" WAVE
TRACK 01 AUDIO
TITLE "Scene I, Introduction"
PERFORMER "Lisitsian_Rozhdestvenskaja_Pontryagin_Legostaeva_USSR_RSO_Samosud"
INDEX 01 00:00:00
TRACK 02 AUDIO
TITLE "Scene I, Tsarevna's Song 'Dni bez prosveta'"
PERFORMER "Lisitsian_Rozhdestvenskaja_Pontryagin_Legostaeva_USSR_RSO_Samosud"
INDEX 01 01:31:43
TRACK 03 AUDIO
TITLE "Scene I, Scene & Terzetto - 'Ya vizhu devu krasoty chudesnoy...'"
PERFORMER "Lisitsian_Rozhdestvenskaja_Pontryagin_Legostaeva_USSR_RSO_Samosud"
INDEX 01 05:23:35
TRACK 04 AUDIO
TITLE "Scene I, Kashchey's Arioso & Scene - 'Temny eyo ochi...'"
PERFORMER "Lisitsian_Rozhdestvenskaja_Pontryagin_Legostaeva_USSR_RSO_Samosud"
INDEX 01 10:51:25
TRACK 05 AUDIO
TITLE "Scene I, Chorus - 'Vy, gusli-samogudy...'"
PERFORMER "Lisitsian_Rozhdestvenskaja_Pontryagin_Legostaeva_USSR_RSO_Samosud"
INDEX 01 15:02:00
TRACK 06 AUDIO
TITLE "Scene II, Entr'acte"
PERFORMER "Lisitsian_Rozhdestvenskaja_Pontryagin_Legostaeva_USSR_RSO_Samosud"
INDEX 01 21:51:52
TRACK 07 AUDIO
TITLE "Scene II, Kascheyevna's Aria - 'Nastala noch'"
PERFORMER "Lisitsian_Rozhdestvenskaja_Pontryagin_Legostaeva_USSR_RSO_Samosud"
INDEX 01 29:14:09

CD2

REM GENRE Opera
REM DATE 1949
REM DISCID 5D082608
REM COMMENT "ExactAudioCopy v1.0b6"
PERFORMER "Lisitsian_Rozhdestvenskaja_Pontryagin_Legostaeva_USSR_RSO_Samosud"
TITLE "Rimsky-Korsakov - Kashchey the Immortal, Samosud CD2"
FILE "Rimsky-Korsakov - Kashchey the Immortal, Samosud CD2.ape" WAVE
TRACK 01 AUDIO
TITLE "Scene II, Ivan-Korolevich's Aria - 'Gluhaya noch, dorogi dalshe net'"
PERFORMER "Lisitsian_Rozhdestvenskaja_Pontryagin_Legostaeva_USSR_RSO_Samosud"
INDEX 01 00:00:00
TRACK 02 AUDIO
TITLE "Scene II, Scene & Duet of Ivan-Korolevich and Kascheyevna - 'Dobro pozhalovat'"
PERFORMER "Lisitsian_Rozhdestvenskaja_Pontryagin_Legostaeva_USSR_RSO_Samosud"
INDEX 01 03:39:35
TRACK 03 AUDIO
TITLE "Scene II, Scene & Terzetto - 'Zasnul...Tvoy chas nastal...'"
PERFORMER "Lisitsian_Rozhdestvenskaja_Pontryagin_Legostaeva_USSR_RSO_Samosud"
INDEX 01 09:38:21
TRACK 04 AUDIO
TITLE "Scene III, Entr'acte"
PERFORMER "Lisitsian_Rozhdestvenskaja_Pontryagin_Legostaeva_USSR_RSO_Samosud"
INDEX 01 15:58:73
TRACK 05 AUDIO
TITLE "Scene III, Tsarevna's Lullaby 'Bayu-bay, Kashchey sedoy'"
PERFORMER "Lisitsian_Rozhdestvenskaja_Pontryagin_Legostaeva_USSR_RSO_Samosud"
INDEX 01 19:27:01
TRACK 06 AUDIO
TITLE "Scene III, Scene & Duet of Tsarevna and Ivan-Korolevich - 'Kashcheev terem vo..."
PERFORMER "Lisitsian_Rozhdestvenskaja_Pontryagin_Legostaeva_USSR_RSO_Samosud"
INDEX 01 23:19:45
TRACK 07 AUDIO
TITLE "Scene III, Scene - 'Bezhat naprasno hochesh...'"
PERFORMER "Lisitsian_Rozhdestvenskaja_Pontryagin_Legostaeva_USSR_RSO_Samosud"
INDEX 01 27:59:66
TRACK 08 AUDIO
TITLE "Scene III, Quartet & Final - 'Prosti, Lyubimyi korolevich moy'"
PERFORMER "Lisitsian_Rozhdestvenskaja_Pontryagin_Legostaeva_USSR_RSO_Samosud"
INDEX 01 32:23:56



Показать сообщения:    

Текущее время: 06-Дек 20:53

Часовой пояс: UTC + 3


Вы не можете начинать темы
Вы не можете отвечать на сообщения
Вы не можете редактировать свои сообщения
Вы не можете удалять свои сообщения
Вы не можете голосовать в опросах
Вы не можете прикреплять файлы к сообщениям
Вы не можете скачивать файлы