(Opera) Римский-Корсаков - Боярыня Вера Шелога / Rimsky-Korsakov - Boyarina Vera Sheloga (Bakardzhiev, Evstatieva, Milcheva, Stanchev - Bulgarian Radio Symphony Orchestra, Angelov) - 1997, APE (image+.cue) lossless


 

[Цитировать]

Nicolai Rimsky-Korsakov - Boyarina Vera Sheloga
Жанр: Opera
Страна-производитель диска: Germany
Год издания диска: 1997
Издатель (лейбл): Capriccio
Номер по каталогу: 10762
Дата записи: 1997
Аудиокодек: APE
Тип рипа: image+.cue
Битрейт аудио: lossless
Продолжительность: 49'13
Источник: собственный рип
Наличие сканов в содержимом раздачи: да
Треклист:
1. Overture
2. Look Boyarishnya, what a fine string of beads
3. Lullaby, lullaby, lulla, lulla..
4. Did Olenka fall asleep to your song?
5. Who is it then? / Do not ask, Nadezhda!
6. I thought I heard a cuckoo ..
7. Stop! Were you not expecting other guests ?
Исполнители:
Nicolai Rimsky-Korsakov - Boyarina Vera Sheloga
Оpera in 1 Act
Verа - Stevka Evstatieva, soprano
Nadeshda - Alexandrina Milcheva, mezzo-soprano
Vlas'yevna - Stefka Mineva, mezzo-soprano
Bojar Sheloga - Peter Bakardzhiev, bass
Prince Tokmakov - Dimiter Stanchev, bass
Bulgarian Radio Symphony Orchestra
Stoyan Angelov

Лог создания рипа

Exact Audio Copy V1.0 beta 3 from 29. August 2011
EAC extraction logfile from 15. August 2014, 13:54
Rimsky-Korsakov / Boyarinya Vera Sheloga, Angelov
Used drive : TS8XDVDSTRANSCEND Adapter: 1 ID: 1
Read mode : SecureUtilize accurate stream : YesDefeat audio cache : YesMake use of C2 pointers : No
Read offset correction : 6Overread into Lead-In and Lead-Out : NoFill up missing offset samples with silence : YesDelete leading and trailing silent blocks : NoNull samples used in CRC calculations : YesUsed interface : Native Win32 interface for Win NT & 2000
Used output format : Monkey's Audio Lossless EncoderSelected bitrate : High Lossless CompressionQuality : HighAdd ID3 tag : NoCommand line compressor : C:\Program Files (x86)\Exact Audio Copy\MAC\MAC.exe
TOC of the extracted CD
Track | Start | Length | Start sector | End sector --------------------------------------------------------- 1 | 0:00.37 | 7:38.20 | 37 | 34406 2 | 7:38.57 | 8:09.00 | 34407 | 71081 3 | 15:47.57 | 4:14.18 | 71082 | 90149 4 | 20:02.00 | 7:49.07 | 90150 | 125331 5 | 27:51.07 | 5:09.08 | 125332 | 148514 6 | 33:00.15 | 13:27.17 | 148515 | 209056 7 | 46:27.32 | 2:46.28 | 209057 | 221534
Range status and errors
Selected range
Filename D:\EAC\Rimsky-Korsakov - Boyarinya Vera Sheloga, Angelov.wav
Peak level 80.4 % Extraction speed 1.7 X Range quality 99.9 % Test CRC 89CA2478 Copy CRC 89CA2478 Copy OK
No errors occurred
AccurateRip summary
Track 1 accurately ripped (confidence 2) [267E8CC5] (AR v1)Track 2 accurately ripped (confidence 2) [77ADD546] (AR v1)Track 3 accurately ripped (confidence 2) [A5F58A9F] (AR v1)Track 4 accurately ripped (confidence 2) [8C27FACB] (AR v1)Track 5 accurately ripped (confidence 2) [D420A4B9] (AR v1)Track 6 accurately ripped (confidence 2) [9CDF2DB4] (AR v1)Track 7 cannot be verified as accurate (confidence 2) [5CD8C756], AccurateRip returned [17034050] (AR v2)
6 track(s) accurately ripped 1 track(s) could not be verified as accurate
Some tracks could not be verified as accurate
End of status report
---- CUETools DB Plugin V2.1.3
[CTDB TOCID: fJ36H5.wVZPlPPuDLHVR8bMovhI-] disk not present in database, Submit result: discs with pregaps not supported in this protocol version
==== Log checksum B5F776DA4F5AE143B3C44EDDAF2ADDC2C573FCAF807B0B92DEECEB5319D47602 ====

Содержание индексной карты (.CUE)

REM GENRE OperaREM DATE 1997REM DISCID 680B8907REM COMMENT "ExactAudioCopy v1.0b3"CATALOG 4006408107620PERFORMER "Rimsky-Korsakov"TITLE "Boyarinya Vera Sheloga, Angelov"FILE "Rimsky-Korsakov - Boyarinya Vera Sheloga, Angelov.ape" WAVE TRACK 01 AUDIO TITLE "Overture" PERFORMER "Rimsky-Korsakov" INDEX 00 00:00:00 INDEX 01 00:00:37 TRACK 02 AUDIO TITLE "Look Boyarishnya, what a ine string of beads" PERFORMER "Rimsky-Korsakov" INDEX 01 07:38:57 TRACK 03 AUDIO TITLE "Lullaby" PERFORMER "Rimsky-Korsakov" INDEX 01 15:47:57 TRACK 04 AUDIO TITLE "Did Olenka fall asleep to your song ?" PERFORMER "Rimsky-Korsakov" INDEX 01 20:02:00 TRACK 05 AUDIO TITLE "Who is it then ? - Do not ask, Nadezhda!" PERFORMER "Rimsky-Korsakov" INDEX 01 27:51:07 TRACK 06 AUDIO TITLE "I thought I heard a cuckoo .." PERFORMER "Rimsky-Korsakov" INDEX 01 33:00:15 TRACK 07 AUDIO TITLE "Stop! Were you not expecting other guests ?" PERFORMER "Rimsky-Korsakov" INDEX 01 46:27:32



Показать сообщения:    

Текущее время: 11-Дек 11:07

Часовой пояс: UTC + 3


Вы не можете начинать темы
Вы не можете отвечать на сообщения
Вы не можете редактировать свои сообщения
Вы не можете удалять свои сообщения
Вы не можете голосовать в опросах
Вы не можете прикреплять файлы к сообщениям
Вы не можете скачивать файлы