Закрытый занавес / Closed Curtain / Pardé (Джафар Панахи / Jafar Panahi) [2013, Иран, Драма, DVDRip] + Sub Rus


Статистика раздачи [Обновить пиров]
Размер:  1.42 GB   |    Зарегистрирован:  1 год 1 месяц   |    Скачан:  1 раз

Полного источника не было: 4 месяца 14 дней

Личеров:  1  [  0 KB/s  ]   Подробная статистика пиров
 
   
 
 
 

[Цитировать]

Закрытый занавес / Closed Curtain / Pardé
Страна: Иран
Жанр: Драма
Год выпуска: 2013
Продолжительность: 01:45:49
Перевод: Субтитры
Cубтитры: русские
Оригинальная аудиодорожка: фарси
Режиссер: Джафар Панахи / Jafar Panahi
В ролях: Камбузья Партови / Kambuzia Partovi, Мариам Мокадам / Maryam Moqadam, Джафар Панахи / Jafar Panahi
Описание: Они оба в бегах: мужчина с собакой, которой он не имеет права владеть по исламским законам, и молодая женщина, которая принимала участие в запрещенной вечеринке на берегу Каспийского моря. Они забаррикадировались на уединенной вилле с завешанными окнами и с подозрением посматривают друг на друга.
Сэмпл: http://sendfile.su/1168563
Качество видео: DVDRip
Формат видео: MKV
Видео: 1 696 Kbps (1 805 Kbps), 720*552 (1:85.1), at 24.000 fps, AVC (High@L3.1)(CABAC/9 Ref Frames)
Аудио: 192 Kbps, 48.0 KHz, 16 bits, 2 channels, AC-3
Формат субтитров: softsub (SRT)

MediaInfo

General
Unique ID : 240342495990225559731772257742373569799 (0xB4D047EF32E66051BD229114C424C507)
Complete name : C:\Users\Никита\Desktop\Closed Curtain (Jafar Panahi & Kambuzia Partovi, 2013).mkv
Format : Matroska
Format version : Version 4 / Version 2
File size : 1.42 GiB
Duration : 1h 45mn
Overall bit rate : 1 926 Kbps
Movie name : Pardé (Jafar Panahi & Kambuzia Partovi, 2013)
Encoded date : UTC 2015-10-25 05:41:47
Writing application : mkvmerge v7.8.0 ('River Man') 32bit built on Mar 27 2015 16:18:02
Writing library : libebml v1.3.1 + libmatroska v1.4.2
_STATISTICS_WRITING_APP : mkvmerge v7.8.0 ('River Man') 32bit built on Mar 27 2015 16:18:02
_STATISTICS_WRITING_DATE_UTC : 2015-10-25 05:41:47
_STATISTICS_TAGS : BPS DURATION NUMBER_OF_FRAMES NUMBER_OF_BYTES
DURATION : 01:31:13.120000000
NUMBER_OF_FRAMES : 578
NUMBER_OF_BYTES : 27856
Video
ID : 1
Format : AVC
Format/Info : Advanced Video Codec
Format profile : High@L3.1
Format settings, CABAC : Yes
Format settings, ReFrames : 9 frames
Codec ID : V_MPEG4/ISO/AVC
Duration : 1h 45mn
Bit rate : 1 696 Kbps
Nominal bit rate : 1 805 Kbps
Width : 720 pixels
Height : 552 pixels
Display aspect ratio : 1.85:1
Frame rate mode : Constant
Frame rate : 24.000 fps
Original frame rate : 25.000 fps
Color space : YUV
Chroma subsampling : 4:2:0
Bit depth : 8 bits
Scan type : Progressive
Bits/(Pixel*Frame) : 0.178
Stream size : 1.25 GiB (88%)
Writing library : x264 core 146 r2538 121396c
Encoding settings : cabac=1 / ref=9 / deblock=1:-3:-3 / analyse=0x3:0x133 / me=umh / subme=9 / psy=1 / psy_rd=1.00:0.15 / mixed_ref=1 / me_range=24 / chroma_me=1 / trellis=2 / 8x8dct=1 / cqm=0 / deadzone=21,11 / fast_pskip=0 / chroma_qp_offset=-3 / threads=3 / lookahead_threads=1 / sliced_threads=0 / nr=0 / decimate=1 / interlaced=0 / bluray_compat=0 / constrained_intra=0 / bframes=5 / b_pyramid=2 / b_adapt=2 / b_bias=0 / direct=1 / weightb=1 / open_gop=0 / weightp=2 / keyint=250 / keyint_min=25 / scenecut=40 / intra_refresh=0 / rc_lookahead=50 / rc=2pass / mbtree=1 / bitrate=1805 / ratetol=1.0 / qcomp=0.60 / qpmin=0 / qpmax=69 / qpstep=4 / cplxblur=20.0 / qblur=0.5 / vbv_maxrate=17500 / vbv_bufsize=17500 / nal_hrd=none / filler=0 / ip_ratio=1.40 / aq=1:1.20
Default : Yes
Forced : No
Audio
ID : 2
Format : AC-3
Format/Info : Audio Coding 3
Mode extension : CM (complete main)
Format settings, Endianness : Big
Codec ID : A_AC3
Duration : 1h 45mn
Bit rate mode : Constant
Bit rate : 192 Kbps
Channel(s) : 2 channels
Channel positions : Front: L R
Sampling rate : 48.0 KHz
Bit depth : 16 bits
Compression mode : Lossy
Stream size : 145 MiB (10%)
Language : ira
Default : Yes
Forced : No
Text
ID : 3
Format : UTF-8
Codec ID : S_TEXT/UTF8
Codec ID/Info : UTF-8 Plain Text
Language : Russian
Default : Yes
Forced : No
Menu
00:00:00.000 : en:Chapter 1
00:13:33.320 : en:Chapter 2
00:24:23.380 : en:Chapter 3
00:41:00.220 : en:Chapter 4
00:52:25.860 : en:Chapter 5
01:03:21.480 : en:Chapter 6
01:15:09.390 : en:Chapter 7
01:27:18.040 : en:Chapter 8
01:40:47.140 : en:Chapter 9

Скриншот c названием фильма

Скриншоты

[teatrix.ru].t10167.torrent 
Торрент: Зарегистрирован [ 2015-10-27 19:05 ] · 595E0B57B64B56D0412C7CA405BAA69069E6CBC2

Скачать .torrent

Скачать

15 KB

Статус: проверено
Скачан: 1 раз
Размер: 1.42 GB
terms.php



Быстрый ответ

Имя:

      
Для отправки сообщений необходимо включить JavaScript
Показать сообщения:    

Текущее время: 04-Дек 06:54

Часовой пояс: UTC + 3


Вы можете начинать темы
Вы можете отвечать на сообщения
Вы не можете редактировать свои сообщения
Вы не можете удалять свои сообщения
Вы не можете голосовать в опросах
Вы не можете прикреплять файлы к сообщениям
Вы можете скачивать файлы