(Classical) Joseph Martin Kraus - Arias and Overtures - Monica Groop, Helsinki Baroque Orchestra, Aapo Häkkinen (Hakkinen) - 2014, FLAC (image+.cue) lossless


 

[Цитировать]

Joseph Martin Kraus - Arias and Overtures - Monica Groop, Helsinki Baroque Orchestra, Aapo Häkkinen
Жанр: Classical
Год издания диска: 2014
Издатель (лейбл): Naxos
Номер по каталогу: 8.572865
Дата записи: 2013
Аудиокодек: FLAC
Тип рипа: image+.cue
Битрейт аудио: lossless
Продолжительность: 62:47
Источник: собственный рип
Наличие сканов в содержимом раздачи: да
Треклист:
Joseph Martin Kraus (1756–1792)
[1] Overture: Proserpin, VB 19
[2] Du i hvars oskuldsfulla blick, VB 30*†
[3] Ma tu tremi, VB 63*†
[4] Ch’io mai vi possa, VB 59*†
[5] Overture: Zum Geburtstage des Königs Gustav III, VB 41
[6] Parvum quando cerno Deum, VB 5*†
[7] Overture: Äfventyraren, VB 32*
[8] Du temps, qui détruit tout, VB 58†
[9] Sentimi, non partir! – Al mio bene, VB 55†
[10] Overture: Konung Gustav III Begrafnings-kantat, VB 42
[11] Hör mina ömma suckar klaga, VB 26*†
*WORLD PREMIÈRE RECORDING
Исполнители:
Monica Groop mezzo-soprano
Helsinki Baroque Orchestra
Aapo Häkkinen

Лог создания рипа

Exact Audio Copy V1.1 from 23. June 2015
EAC extraction logfile from 23. October 2015, 2:08
Monica Groop, Helsinki Baroque Orchestra, Aapo Häkkinen / Kraus - Arias and Overtures
Used drive : HL-DT-STDVDRAM GU70N Adapter: 1 ID: 0
Read mode : SecureUtilize accurate stream : YesDefeat audio cache : YesMake use of C2 pointers : No
Read offset correction : 48Overread into Lead-In and Lead-Out : NoFill up missing offset samples with silence : YesDelete leading and trailing silent blocks : NoNull samples used in CRC calculations : YesUsed interface : Native Win32 interface for Win NT & 2000
Used output format : User Defined EncoderSelected bitrate : 128 kBit/sQuality : HighAdd ID3 tag : NoCommand line compressor : C:\Program Files (x86)\Exact Audio Copy\Flac\flac.exeAdditional command line options : -V -8 -T "Date=%year%" -T "Genre=%genre%" %source%
TOC of the extracted CD
Track | Start | Length | Start sector | End sector --------------------------------------------------------- 1 | 0:00.00 | 8:21.26 | 0 | 37600 2 | 8:21.26 | 2:04.27 | 37601 | 46927 3 | 10:25.53 | 3:17.61 | 46928 | 61763 4 | 13:43.39 | 4:09.55 | 61764 | 80493 5 | 17:53.19 | 8:53.42 | 80494 | 120510 6 | 26:46.61 | 7:44.63 | 120511 | 155373 7 | 34:31.49 | 10:33.61 | 155374 | 202909 8 | 45:05.35 | 2:25.00 | 202910 | 213784 9 | 47:30.35 | 7:09.58 | 213785 | 246017 10 | 54:40.18 | 6:19.59 | 246018 | 274501 11 | 61:00.02 | 1:45.34 | 274502 | 282410
Range status and errors
Selected range
Filename C:\temp\Naxos_8.572865 - Kraus - Arias and Overtures\Kraus - Arias and Overtures.wav
Peak level 97.8 % Extraction speed 5.2 X Range quality 100.0 % Test CRC 76FBEC8F Copy CRC 76FBEC8F Copy OK
No errors occurred
AccurateRip summary
Track 1 accurately ripped (confidence 4) [A2741612] (AR v2)Track 2 accurately ripped (confidence 4) [B1A0DD4B] (AR v2)Track 3 accurately ripped (confidence 4) [0B057231] (AR v2)Track 4 accurately ripped (confidence 4) [D044D52F] (AR v2)Track 5 accurately ripped (confidence 4) [81C87FE4] (AR v2)Track 6 accurately ripped (confidence 4) [3C462C8D] (AR v2)Track 7 accurately ripped (confidence 4) [3C493384] (AR v2)Track 8 accurately ripped (confidence 4) [8FB30FED] (AR v2)Track 9 accurately ripped (confidence 4) [D90379A1] (AR v2)Track 10 accurately ripped (confidence 4) [61EE2BFD] (AR v2)Track 11 accurately ripped (confidence 4) [9427013B] (AR v2)
All tracks accurately ripped
End of status report
==== Log checksum D1FFF6343903730E74FF9589841CD5877886D3216F38F0B6E0AD9E1B94A28F0A ====



Показать сообщения:    

Текущее время: 03-Дек 07:36

Часовой пояс: UTC + 3


Вы не можете начинать темы
Вы не можете отвечать на сообщения
Вы не можете редактировать свои сообщения
Вы не можете удалять свои сообщения
Вы не можете голосовать в опросах
Вы не можете прикреплять файлы к сообщениям
Вы не можете скачивать файлы