(Vocal/Orchestral, Symphonic poem) Анри Дюпарк - Романсы, Симф. поэмы / Henri Duparc - Melodies, Lenore, Aux etoiles, Danse lente (Francoise Pollet, Orchestre Symphonique & Lyrique De Nancy, Jerome Kaltenbach) - 2002, APE (image+.cue) lossless


 

[Цитировать]

Henri Duparc - Mélodies, Lenore, Aux étoiles, Danse lente
Жанр: Vocal/Orchestral
Страна-производитель диска: France
Год издания диска: 2002
Издатель (лейбл): Accord
Номер по каталогу: 202832
Дата записи: 1993
Аудиокодек: APE
Тип рипа: image+.cue
Битрейт аудио: lossless
Продолжительность: 60:49
Источник: скачано с
Наличие сканов в содержимом раздачи: да
Треклист:
Henry Duparc (1848-1933)
01 Lenore, poeme symphonique (1875) (13:36)
Mélodies avec orchestre
02 Le Manoir de Rosemonde (1879) (2:18)
03 Chanson triste (1868) (3:45)
04 L'invitation au voyage (1870) (4:50)
05 La vie anterieure (1884) (4:56)
06 Phidyle (1882) (6:41)
07 Au pays ou se fait la guerre (1870) (5:38)
08 Testament (1883) (2:48)
09 La Vague et la cloche (1870) (5:50)
10 Danse lente, pour orchestre (Roussalka) (4:49)
11 Aux étoiles, poème nocturne (entracte pour un drame inédit, 1874) (5:32)
Исполнители:
Francoise Pollet, soprano
Orchestre Symphonique & Lyrique De Nancy
Jerome Kaltenbach, direction

Лог создания рипа

Exact Audio Copy V0.99 prebeta 4 from 23. January 2008
EAC extraction logfile from 20. December 2009, 20:31
Henri Duparc / Melodies/ Lenore/ Aux etoiles/ Danse lente
Used drive : HL-DT-STDVDRAM GSA-4120B Adapter: 0 ID: 0
Read mode : SecureUtilize accurate stream : YesDefeat audio cache : YesMake use of C2 pointers : No
Read offset correction : 667Overread into Lead-In and Lead-Out : NoFill up missing offset samples with silence : YesDelete leading and trailing silent blocks : NoNull samples used in CRC calculations : NoUsed interface : Installed external ASPI interface
Used output format : Monkey's Audio Lossless Encoder v3.99 DLLSample format : Fast Lossless Compression
TOC of the extracted CD
Track | Start | Length | Start sector | End sector --------------------------------------------------------- 1 | 0:00.32 | 13:36.60 | 32 | 61291 2 | 13:37.17 | 2:18.50 | 61292 | 71691 3 | 15:55.67 | 3:45.70 | 71692 | 88636 4 | 19:41.62 | 4:50.28 | 88637 | 110414 5 | 24:32.15 | 4:56.32 | 110415 | 132646 6 | 29:28.47 | 6:41.50 | 132647 | 162771 7 | 36:10.22 | 5:38.43 | 162772 | 188164 8 | 41:48.65 | 2:48.02 | 188165 | 200766 9 | 44:36.67 | 5:50.05 | 200767 | 227021 10 | 50:26.72 | 4:49.73 | 227022 | 248769 11 | 55:16.70 | 5:32.52 | 248770 | 273721
Range status and errors
Selected range
Filename C:\TEMP\Henri Duparc - Melodies Lenore Aux etoiles Danse lente.ape
Peak level 91.0 % Range quality 100.0 % Copy CRC 42EA464F Copy OK
No errors occurred
AccurateRip summary
Track 1 not present in databaseTrack 2 not present in databaseTrack 3 not present in databaseTrack 4 not present in databaseTrack 5 not present in databaseTrack 6 not present in databaseTrack 7 not present in databaseTrack 8 not present in databaseTrack 9 not present in databaseTrack 10 not present in databaseTrack 11 not present in database
None of the tracks are present in the AccurateRip database
End of status report
Доп. информация: Без имени Анри Дюпарка сложно представить полную картину позднего французского романтизма на рубеже Прекрасной эпохи. Он был первым учеником Сезара Франка, а также другом Листа и Вагнера, которые и оказали значительное влияние на творчество композитора. Его романсы для голоса и фортепиано (всего 17, 8 из которых оркестрованы) на изысканнейшие стихи поэтов того времени (Ш. Бодлера, Ш. Леконт де Лиля, T. Готье и др.) отличающиеся утончённым лирическим началом и в подчёркнуто камерной пространственостью звучания, предвосхитили сочинения Форе и Дебюсси, повлияли на музыку Равеля. В середине 1870-х Дюпарк обращается к симфонической музыке. В 1874 году он написал симфонический ноктюрн, премьера которого состоялась в апреле того же года на концерте, проводимом национальным обществом современной музыки, однако, из трёх частей этого ноктюрна сохранилась лишь одна с подзаголовком "К звёздам". В 1875 году им была создана симфоническая поэма "Ленора" (по балладе Готфрида Августа Бюргера, переведённая нашим Жуковским, где Ленора превратилась в Людмилу). Исследователи жизни и творчества Дюпарка зачастую рассматривают не его достижения, а размышляют о том, чего он мог бы достичь ещё, ибо этот композитор уничтожил большую часть своих сочинений (включая оперу "Русалка" по Пушкину) и прекратил создавать музыку в 36 лет в самый разгар своего творческого подъема, из-за душевной болезни, проведя последние 50 лет жизни под присмотром врачей и родных.



Показать сообщения:    

Текущее время: 07-Дек 15:29

Часовой пояс: UTC + 3


Вы не можете начинать темы
Вы не можете отвечать на сообщения
Вы не можете редактировать свои сообщения
Вы не можете удалять свои сообщения
Вы не можете голосовать в опросах
Вы не можете прикреплять файлы к сообщениям
Вы не можете скачивать файлы