В прошлом году в Мариенбаде / Прошлым летом в Мариенбадене / L’annee derniere а Marienbad (Ален Рене / Alain Resnais) [1961, Франиця, Италия, ФРГ, Австрия, экзистенциальная притча, BDRip] DVO


 

[Цитировать]

В прошлом году в Мариенбаде / Прошлым летом в Мариенбадене / L’annee derniere а Marienbad
Страна: Франиця, Италия, ФРГ, Австрия
Жанр: экзистенциальная притча
Год выпуска: 1961
Продолжительность: 01:34:43
Перевод: Профессиональный (двухголосый закадровый)
Cубтитры: нет

Режиссер: Ален Рене / Alain Resnais
В ролях: Дельфин Сейриг, Джорджио Альбертацци, Саша Питоефф, Франсуаз Бертен, Люси Гарсиа-Виль, Элена Корнель, Франсуаза Спира, Карин Тоше-Миттлер, Пьер Барбо, Вильгельм фон Дик
Описание: Действие разворачивается в французском отеле. Молодой человек пытается убедить девушку, что в прошлом году они уже встречались в саду Фредериксбурга. Но девушка не то, что не помнит этого человека, она даже не знает, была ли эта встреча в Фредериксбурге или Мариенбаде. Молодой человек описывает момент их встречи. Рассказывает, что она едва не отдалась ему, но передумала в последнюю минуту. Они тогда договорились встретиться здесь через год, чтобы проверить, как сильны их чувства…
Качество видео: BDRip
Формат видео: AVI
Видео: 672x288 (2.33:1), 23.976 fps, XviD build 73 ~959 kbps avg, 0.21 bit/pixel
Аудио: 48 kHz, MPEG Layer 3, 2 ch, ~128.00 kbps avg

MediaInfo

Общее
Полное имя : H:\Last.Year.at.Marienbad.1961.bdrip_[745]_[teko].avi
Формат : AVI
Формат/Информация : Audio Video Interleave
Размер файла : 743 Мбайт
Продолжительность : 1 ч. 34 м.
Общий поток : 1097 Кбит/сек
Программа кодирования : VirtualDubMod 1.5.10.3 | www.virtualdub-fr.org || (build 2550/release)
Библиотека кодирования : VirtualDubMod build 2550/release
Видео
Идентификатор : 0
Формат : MPEG-4 Visual
Профиль формата : Advanced Simple@L5
Параметр BVOP формата : 2
Параметр QPel формата : Нет
Параметр GMC формата : Без точки перехода
Параметр матрицы формата : Выборочная
Идентификатор кодека : XVID
Идентификатор кодека/Подсказка : XviD
Продолжительность : 1 ч. 34 м.
Битрейт : 960 Кбит/сек
Ширина : 672 пикселя
Высота : 288 пикселей
Соотношение сторон : 2,35:1
Частота кадров : 23,976 кадра/сек
Цветовое пространство : YUV
Субдискретизация насыщенности : 4:2:0
Битовая глубина : 8 бит
Тип развёртки : Прогрессивная
Метод сжатия : С потерями
Бит/(Пиксели*Кадры) : 0.207
Размер потока : 650 Мбайт (87%)
Библиотека кодирования : XviD 73
Аудио
Идентификатор : 1
Формат : MPEG Audio
Версия формата : Version 1
Профиль формата : Layer 3
Идентификатор кодека : 55
Идентификатор кодека/Подсказка : MP3
Продолжительность : 1 ч. 34 м.
Вид битрейта : Постоянный
Битрейт : 128 Кбит/сек
Каналы : 2 канала
Частота : 48,0 КГц
Метод сжатия : С потерями
Размер потока : 86,7 Мбайт (12%)
Выравнивание : Соединение по промежуткам
Продолжительность промежутка : 42 мс. (1,00 видеокадр)
Время предзагрузки промежутка : 504 мс.
Библиотека кодирования : LAME3.98r
Настройки программы : -m s -V 4 -q 2 -lowpass 17 -b 128



Показать сообщения:    

Текущее время: 06-Дек 13:15

Часовой пояс: UTC + 3


Вы не можете начинать темы
Вы не можете отвечать на сообщения
Вы не можете редактировать свои сообщения
Вы не можете удалять свои сообщения
Вы не можете голосовать в опросах
Вы не можете прикреплять файлы к сообщениям
Вы не можете скачивать файлы