Полудурок / Buzzard (Джоэль Потрикус / Joel Potrykus) [2014, драма, комедиЯ, WEB-DLRip] sub rus + original eng


Статистика раздачи [Обновить пиров]
Размер:  1.46 GB   |    Зарегистрирован:  1 год 1 месяц   |    Скачан:  0 раз

Полного источника не было: Никогда

Личеров:  2  [  0 KB/s  ]   Подробная статистика пиров
 
   
 
 
 

[Цитировать]

Полудурок / BuzzardГод выпуска: 2014
Страна: США
Жанр: драма, комедия
Продолжительность: 01:37:28
Перевод: Субтитры
Cубтитры: русские (anyalu6)
Оригинальная аудиодорожка: английский
Режиссер: Джоэль Потрикус / Joel Potrykus
Сценарий: Джоэль Потрикус / Joel Potrykus
Продюсер: Майкл Саундерс / Michael Saunders, Эшли Янг / Ashley Young, Liz Bruinsma, Pete Bruinsma, Andrew Christopoulos
Оператор: Адам Минник / Adam J. Minnick
В ролях: Джошуа Бёрдж, Джоэль Потрикус, Тери Энн Нельсон, Джейсон Рот, Джо Андерсон, Алан Лонгстрит, Майкл Каннингэм, Кристал Хиллиард, Крис Котчер-Описание: Вы думали, что кино про великовозрастных лоботрясов без каких-либо внятных перспектив осталось в 1990-х, а оно тут. Марти Джакитански — злобный, аморальный бездельник, подрабатывающий в банке, только чтобы потом валяться дома, слушать хоррор-метал и играть в приставку. Короче, наш персонаж-Рейтинг
Кинопоиск
IMDB-Качество: WEB-DLRip
Формат: AVI
Видео: XviD; 720x400 (16:9); 2002 Kbps; 23,976 fps; 0,290 bpp
Аудио: MP3; 128 Kbps; CBR; 2 ch; 48.0 KHz-

MI

Format : AVI
Format/Info : Audio Video Interleave
File size : 1.46 GiB
Duration : 1h 37mn
Overall bit rate : 2 140 Kbps
Writing application : VirtualDubMod 1.5.10.3 | www.virtualdub-fr.org || (build 2550/release)
Writing library : VirtualDubMod build 2550/release
Video
ID : 0
Format : MPEG-4 Visual
Format profile : Advanced Simple@L5
Format settings, BVOP : 1
Format settings, QPel : No
Format settings, GMC : No warppoints
Format settings, Matrix : Default (MPEG)
Codec ID : XVID
Codec ID/Hint : XviD
Duration : 1h 37mn
Bit rate : 2 002 Kbps
Width : 720 pixels
Height : 400 pixels
Display aspect ratio : 16:9
Frame rate : 23.976 fps
Color space : YUV
Chroma subsampling : 4:2:0
Bit depth : 8 bits
Scan type : Progressive
Compression mode : Lossy
Bits/(Pixel*Frame) : 0.290
Stream size : 1.36 GiB (94%)
Writing library : XviD 1.2.1 (UTC 2008-12-04)
Audio
ID : 1
Format : MPEG Audio
Format version : Version 1
Format profile : Layer 3
Codec ID : 55
Codec ID/Hint : MP3
Duration : 1h 37mn
Bit rate mode : Constant
Bit rate : 128 Kbps
Channel(s) : 2 channels
Sampling rate : 48.0 KHz
Compression mode : Lossy
Stream size : 89.2 MiB (6%)
Alignment : Aligned on interleaves
Interleave, duration : 42 ms (1.00 video frame)
Interleave, preload duration : 504 ms
Writing library : LAME3.99r
Encoding settings : -m s -V 4 -q 2 -lowpass 17 -b 128

Пример субтитров

432
00:27:14,252 --> 00:27:16,391
- Ты закончил с теми чеками?
- Угу.
433
00:27:16,454 --> 00:27:18,400
Ладно, отлично.
434
00:27:18,456 --> 00:27:20,527
- Со всеми разобрался.
- Со всеми?
435
00:27:20,591 --> 00:27:22,468
Да. Не знаю, это было довольно
легко.
436
00:27:22,527 --> 00:27:25,064
Вау. Значит, ты их отправил?
437
00:27:25,129 --> 00:27:26,972
Отдал их Стейси?
438
00:27:28,466 --> 00:27:30,946
Марти, ты отдал чеки Стейси?
439
00:27:32,236 --> 00:27:35,080
Нет. Я отправил их сам.
440
00:27:35,139 --> 00:27:36,777
Как?
441
00:27:36,841 --> 00:27:38,912
Просто наклеил марки...
442
00:27:38,976 --> 00:27:41,582
Ты сам оплатил отправку?
443
00:27:41,646 --> 00:27:44,092
Нет. Я нашёл несколько марок.
444
00:27:44,148 --> 00:27:47,391
У Стейси на столе есть специальное
устройство.
445
00:27:47,451 --> 00:27:51,957
Да, я знаю, просто нашёл несколько
старых марок у себя в ящике...
446
00:27:52,023 --> 00:27:54,060
и решил их использовать, так что...
447
00:27:55,092 --> 00:27:57,129
- То есть, они уже отправлены?
- Ага.
448
00:27:58,863 --> 00:28:01,207
Ладно. Просто подождём до
следующей недели...
449
00:28:01,265 --> 00:28:03,040
и посмотрим, начали ли их обналичивать.
450
00:28:04,569 --> 00:28:07,413
- Хорошо?
- А как вы это делаете?
451
00:28:07,471 --> 00:28:10,680
Я знаю, из какого фонда эти чеки,
так что всё довольно просто.
452
00:28:12,043 --> 00:28:13,920
Понятно. Круто.

Скриншоты

[teatrix.ru].t10172.torrent 
Торрент: Зарегистрирован [ 2015-10-28 20:05 ] · 1DFCABF26FC5FE7492F12892C8D03C3EE60E747C

Скачать .torrent

Скачать

15 KB

Статус: проверено
Скачан: 0 раз
Размер: 1.46 GB
terms.php



Быстрый ответ

Имя:

      
Для отправки сообщений необходимо включить JavaScript
Показать сообщения:    

Текущее время: 10-Дек 19:33

Часовой пояс: UTC + 3


Вы можете начинать темы
Вы можете отвечать на сообщения
Вы не можете редактировать свои сообщения
Вы не можете удалять свои сообщения
Вы не можете голосовать в опросах
Вы не можете прикреплять файлы к сообщениям
Вы можете скачивать файлы