Июньский змей / A Snake Of June / Rokugatsu No Hebi (Шинья Цукамото / Shinya Tsukamoto) [2002, Япония, драма, HDRip] AVO (Гранкин)


 

[Цитировать]

Июньский змей / A Snake Of June / Rokugatsu No Hebi
Страна: Япония
Жанр: драма
Год выпуска: 2002
Продолжительность: 01:42:07
Перевод: Авторский (одноголосый закадровый) [Евгений Гранкин]
Оригинальная аудиодорожка: нет
Cубтитры:нет
Режиссер: Шинья Цукамото / Shinya Tsukamoto
В ролях: Асука Куросава, Юдзи Котари, Синья Цукамото, Юкино Асай, Хира Дедзу, Койти Фудзита, Такэхиро Фукухара, Томоя Фукумото, Мансаку Фува, Тэруко Ханахара
Описание:Ринко Тацуми — тихая, замкнутая женщина тридцати с лишним лет. Она работает психологом на телефоне доверия в окружной психиатрической клинике. Она очень талантливый психолог, а ее муж Сигехико — крупный бизнесмен. У них нет детей.
Июнь, сезон дождей в Японии. Однажды, в сырой неприветливый день Ринко получает странное письмо в конверте с надписью: «Секреты вашего мужа»…
Релиз:

Качество: HDRip - BDRip 720p
Контейнер: AVI
Видео: 720x544 (1.32:1), 23.976 fps, XviD build 50 ~2355 kbps avg, 0.25 bit/pixel
Аудио: 48 kHz, AC3 Dolby Digital, 2/0 (L,R) ch, ~192 kbps

MI

Общее
Полное имя : D:\Мои рипы\Июньский Змей_HDRip_1400_Некул.avi
Формат : AVI
Формат/Информация : Audio Video Interleave
Размер файла : 1,37 Гбайт
Продолжительность : 1 ч. 16 м.
Общий поток : 2556 Кбит/сек
Программа кодирования : VirtualDubMod 1.5.10.3 | www.virtualdub-fr.org || (build 2550/release)
Библиотека кодирования : VirtualDubMod build 2550/release
Видео
Идентификатор : 0
Формат : MPEG-4 Visual
Профиль формата : Advanced Simple@L5
Параметр BVOP формата : 2
Параметр QPel формата : Нет
Параметр GMC формата : Без точки перехода
Параметр матрицы формата : Default (MPEG)
Идентификатор кодека : DX50
Идентификатор кодека/Подсказка : DivX 5
Продолжительность : 1 ч. 16 м.
Битрейт : 2355 Кбит/сек
Ширина : 720 пикселей
Высота : 544 пикселя
Соотношение сторон : 4:3
Частота кадров : 23,976 кадра/сек
Цветовое пространство : YUV
Субдискретизация насыщенности : 4:2:0
Битовая глубина : 8 бит
Тип развёртки : Прогрессивная
Метод сжатия : С потерями
Бит/(Пиксели*Кадры) : 0.251
Размер потока : 1,27 Гбайт (92%)
Библиотека кодирования : XviD 1.2.1 (UTC 2008-12-04)
Аудио
Идентификатор : 1
Формат : AC-3
Формат/Информация : Audio Coding 3
Расширение режима : CM (complete main)
Параметр Endianness формата : Big
Идентификатор кодека : 2000
Продолжительность : 1 ч. 16 м.
Вид битрейта : Постоянный
Битрейт : 192 Кбит/сек
Каналы : 2 канала
Расположение каналов : Front: L R
Частота : 48,0 КГц
Битовая глубина : 16 бит
Метод сжатия : С потерями
Размер потока : 106 Мбайт (8%)
Выравнивание : Разделение по промежуткам
Продолжительность промежутка : 42 мс. (1,00 видеокадр)
Время предзагрузки промежутка : 500 мс.

Скриншоты

[



Показать сообщения:    

Текущее время: 03-Дек 01:22

Часовой пояс: UTC + 3


Вы не можете начинать темы
Вы не можете отвечать на сообщения
Вы не можете редактировать свои сообщения
Вы не можете удалять свои сообщения
Вы не можете голосовать в опросах
Вы не можете прикреплять файлы к сообщениям
Вы не можете скачивать файлы