(Opera) Gustave Charpentier - Louise (Cotrubas, Domingo, Bacquier, Berbie - Pretre 1976) - 2009, APE (image+.cue) lossless


 

[Цитировать]

Gustave Charpentier (1860-1956)
Louise
Ambrosian Opera Chorus
John McCarthy
New Philharmonia Orchestra
Georges Prêtre
Жанр: Opera
Страна-производитель диска: EU
Год издания диска: 2009
Издатель (лейбл): Sony Music
Номер по каталогу: LC 06868
Дата записи: 1976
Аудиокодек: APE
Тип рипа: image+.cue
Битрейт аудио: lossless
Продолжительность: 56'29 + 57'10 + 56'55
Источник: собственный рип
Наличие сканов в содержимом раздачи: да
Треклист:
Disc: 1
01. Act I: Prelude
02. Act 1, Scene 1: O coeur ami! o coeur promis!
03. Act 1, Scene 2: Moi, je vous avais remarque
04. Act 1, Scene 3: C'etait mon adoree!
05. Act 1, Scene 4: Bonsoir! La soupe est prete?
06. Act 1, Scene 4: Une lettre? Oui, une lettre du voisin
07. Act 1, Scene 4: O mon enfant, ma Louise
08. Act 2, Prelude
09. Act 2, Premier Tableau, Scene 1: Dire 1u'en c'moment y a des femmes
10. Act 2, Premier Tableau, Scene 2: Les bons lits! Les belles robes!
11. Act 2, Premier Tableau, Scene 3: C'est ici? C'est la qu'elle travaille?
12. Act 2, Premier Tableau, Scene 4: Elle va paraitre, ma joie
Disc: 2
01. Act 2, Premier Tableau (suite): La caneus', racc'modeus' de chais's!
02. Act 2, Premier Tableau, Scene 5: Bonjour! Bonjour! Comment vas-tu?
03. Act 2, Premier Tableau, Scene 6: Pourquoi te retourner?
04. Act 2, Premier Tableau, Scene 7: Laissez-moi, ah! de grace!
05. Act 2, Premier Tableau, Scene 8: Marchand d'habits! avez-vous des habits
06. Act 2, Interlude
07. Act 2, Second Tableau, Scene 1: La! la! la! C'est enervant!
08. Act 2, Second Tableau, Scene 2: Quell' drol' de fanfare!
09. Act 2, Second Tableau, Scene 3: Qu'est-c' qui lui prend?
10. Act 3, Prelude
11. Act 3, Scene 1: Depuis le jour ou je me suis donnee
12. Act 3, Scene 1: Louise est heureuse? Trop heureuse!
13. Act 3, Scene 1: Ainsi tout enfant a le droit
14. Act 3, Scene 1: Ah! Prends-moi vite, vite
Disc: 3
01. Act 3, Scene 2: Ils sont la?
02. Act 3, Scene 3: Par Mercure aux pieds legers
03. Act 3, Scene 3: O jolie! Soeur choisie!
04. Act 3, Scene 4: Je ne viens pas en ennemie
05. Act 4, Prelude
06. Act 4, Scene 1: Tu devrais te rapprocher de la fenetre
07. Act 4, Scene 1: Voir naitre une enfant
08. Act 4, Scene 1: Louise! Louise! Quoi? Viens m'aider!
09. Act 4, Scene 2: Bonsoir, pere
10. Act 4, Scene 2: Tout etre e le droit d'etre libre
11. Act 4, Scene 2: Qu'il vienne vite, vite, mon bien-aime
12. Act 4, Scene 3: Louise! Louise!
Исполнители:
Gustave Charpentier (1860-1956)
Louise
Ileana Cotrubas - Louise, soprano
Plácido Domingo - Julien, tenor
Gabriel Bacquier - Le pere, bass
Jane Berbié - La mère, alto
Michel Sénégal - Le noctambule, tenor
Lyliane Guitton - Irma, alto
etc.
Ambrosian Opera Chorus
John McCarthy
New Philharmonia Orchestra
Georges Prêtre
1976
Лог создания рипа
Лог создания рипа
CD1
Exact Audio Copy V1.0 beta 3 from 29. August 2011
EAC extraction logfile from 9. February 2013, 13:11
Gustave Charpentier / Louise, Prêtre 1976 CD1
Used drive : TSSTcorpCDDVDW SE-208AB Adapter: 1 ID: 0
Read mode : Secure
Utilize accurate stream : Yes
Defeat audio cache : Yes
Make use of C2 pointers : No
Read offset correction : 6
Overread into Lead-In and Lead-Out : No
Fill up missing offset samples with silence : Yes
Delete leading and trailing silent blocks : No
Null samples used in CRC calculations : Yes
Used interface : Native Win32 interface for Win NT & 2000
Used output format : Monkey's Audio Lossless Encoder
Selected bitrate : Fast Lossless Compression
Quality : High
Add ID3 tag : Yes
Command line compressor : C:\Program Files\Exact Audio Copy\Monkeys Audio\MAC.exe
Additional command line options : %dest% -t "Artist=%artist%" -t "Title=%title%" -t "Album=%albumtitle%" -t "Year=%year%" -t "Track=%tracknr%" -t "Genre=%genre%" mac.exe %source% %dest% -c3000 -v
TOC of the extracted CD
Track | Start | Length | Start sector | End sector
---------------------------------------------------------
1 | 0:00.00 | 0:55.00 | 0 | 4124
2 | 0:55.00 | 8:35.05 | 4125 | 42754
3 | 9:30.05 | 5:03.70 | 42755 | 65549
4 | 14:34.00 | 3:51.00 | 65550 | 82874
5 | 18:25.00 | 9:38.47 | 82875 | 126271
6 | 28:03.47 | 2:37.65 | 126272 | 138111
7 | 30:41.37 | 6:59.25 | 138112 | 169561
8 | 37:40.62 | 2:37.35 | 169562 | 181371
9 | 40:18.22 | 7:50.35 | 181372 | 216656
10 | 48:08.57 | 3:52.10 | 216657 | 234066
11 | 52:00.67 | 3:18.43 | 234067 | 248959
12 | 55:19.35 | 1:10.35 | 248960 | 254244
Range status and errors
Selected range
Filename E:\Muziek\Gustave Charpentier - Louise, Prêtre 1976 CD1.wav
Peak level 70.3 %
Extraction speed 4.5 X
Range quality 100.0 %
Copy CRC A7BB2347
Copy OK
No errors occurred
AccurateRip summary
Track 1 cannot be verified as accurate (confidence 4) [3FFEDD18], AccurateRip returned [14D92C49] (AR v2)
Track 2 cannot be verified as accurate (confidence 4) [DD08BBDE], AccurateRip returned [931A959B] (AR v2)
Track 3 cannot be verified as accurate (confidence 4) [06568074], AccurateRip returned [370A7871] (AR v2)
Track 4 cannot be verified as accurate (confidence 4) [96E92685], AccurateRip returned [A031F305] (AR v2)
Track 5 cannot be verified as accurate (confidence 4) [C57223FB], AccurateRip returned [6F72DA37] (AR v2)
Track 6 cannot be verified as accurate (confidence 4) [6CFC8A2C], AccurateRip returned [3D736EB8] (AR v2)
Track 7 cannot be verified as accurate (confidence 4) [D0F4DDFF], AccurateRip returned [10A6BCAC] (AR v2)
Track 8 cannot be verified as accurate (confidence 4) [77405D55], AccurateRip returned [C1B882CD] (AR v2)
Track 9 cannot be verified as accurate (confidence 4) [BBF3990C], AccurateRip returned [5BE639FA] (AR v2)
Track 10 cannot be verified as accurate (confidence 4) [9B15A44A], AccurateRip returned [D925602E] (AR v2)
Track 11 cannot be verified as accurate (confidence 4) [1A300FFC], AccurateRip returned [3F993579] (AR v2)
Track 12 cannot be verified as accurate (confidence 4) [D3442A03], AccurateRip returned [A124BA6C] (AR v2)
No tracks could be verified as accurate
You may have a different pressing from the one(s) in the database
End of status report
---- CUETools DB Plugin V2.1.3
[CTDB TOCID: dCyPhS0z0fEAyweQg1N67geGAZc-] found, Submit result: dCyPhS0z0fEAyweQg1N67geGAZc- has been confirmed
[3fc7ad89] (9/9) Accurately ripped
==== Log checksum 22E69A70189B2F4C501F263DDE1F354A64AB8AC55C62FD84B25B2EE81368821C ====
CD2скрытый текстExact Audio Copy V1.0 beta 3 from 29. August 2011
EAC extraction logfile from 9. February 2013, 13:19
Gustave Charpentier / Louise, Prêtre 1976 CD2
Used drive : HL-DT-STDVD-RAM GSA-H55N Adapter: 0 ID: 0
Read mode : Secure
Utilize accurate stream : Yes
Defeat audio cache : Yes
Make use of C2 pointers : No
Read offset correction : 102
Overread into Lead-In and Lead-Out : No
Fill up missing offset samples with silence : Yes
Delete leading and trailing silent blocks : No
Null samples used in CRC calculations : Yes
Used interface : Native Win32 interface for Win NT & 2000
Used output format : Monkey's Audio Lossless Encoder
Selected bitrate : Fast Lossless Compression
Quality : High
Add ID3 tag : Yes
Command line compressor : C:\Program Files\Exact Audio Copy\Monkeys Audio\MAC.exe
Additional command line options : %dest% -t "Artist=%artist%" -t "Title=%title%" -t "Album=%albumtitle%" -t "Year=%year%" -t "Track=%tracknr%" -t "Genre=%genre%" mac.exe %source% %dest% -c3000 -v
TOC of the extracted CD
Track | Start | Length | Start sector | End sector
---------------------------------------------------------
1 | 0:00.00 | 2:19.37 | 0 | 10461
2 | 2:19.37 | 1:19.40 | 10462 | 16426
3 | 3:39.02 | 1:35.45 | 16427 | 23596
4 | 5:14.47 | 4:19.63 | 23597 | 43084
5 | 9:34.35 | 1:56.62 | 43085 | 51846
6 | 11:31.22 | 2:08.38 | 51847 | 61484
7 | 13:39.60 | 8:31.22 | 61485 | 99831
8 | 22:11.07 | 6:28.68 | 99832 | 128999
9 | 28:40.00 | 0:40.00 | 129000 | 131999
10 | 29:20.00 | 4:45.72 | 132000 | 153446
11 | 34:05.72 | 4:37.30 | 153447 | 174251
12 | 38:43.27 | 6:11.35 | 174252 | 202111
13 | 44:54.62 | 8:49.63 | 202112 | 241849
14 | 53:44.50 | 3:26.25 | 241850 | 257324
Range status and errors
Selected range
Filename E:\Muziek\Gustave Charpentier - Louise, Prêtre 1976 CD2.wav
Peak level 82.5 %
Extraction speed 2.7 X
Range quality 100.0 %
Copy CRC E8E06514
Copy OK
No errors occurred
AccurateRip summary
Track 1 cannot be verified as accurate (confidence 6) [D5E1B780], AccurateRip returned [54F8D370] (AR v2)
Track 2 cannot be verified as accurate (confidence 6) [34A4CC1F], AccurateRip returned [9E0F33D1] (AR v2)
Track 3 cannot be verified as accurate (confidence 6) [92ACCE0F], AccurateRip returned [8A4C37B8] (AR v2)
Track 4 cannot be verified as accurate (confidence 6) [2EADCC23], AccurateRip returned [B56FF778] (AR v2)
Track 5 cannot be verified as accurate (confidence 6) [5D68CB52], AccurateRip returned [57455012] (AR v2)
Track 6 cannot be verified as accurate (confidence 6) [27D4935D], AccurateRip returned [660614F8] (AR v2)
Track 7 cannot be verified as accurate (confidence 6) [59A99D18], AccurateRip returned [B248CD2D] (AR v2)
Track 8 cannot be verified as accurate (confidence 6) [52792400], AccurateRip returned [3EA01240] (AR v2)
Track 9 cannot be verified as accurate (confidence 6) [932709E1], AccurateRip returned [B2739665] (AR v2)
Track 10 cannot be verified as accurate (confidence 6) [EE5560D5], AccurateRip returned [A024BCA1] (AR v2)
Track 11 cannot be verified as accurate (confidence 6) [84612298], AccurateRip returned [734CB2B2] (AR v2)
Track 12 cannot be verified as accurate (confidence 6) [FE2869DC], AccurateRip returned [D06688AA] (AR v2)
Track 13 cannot be verified as accurate (confidence 6) [7E8C7B9B], AccurateRip returned [A109C2CF] (AR v2)
Track 14 cannot be verified as accurate (confidence 6) [401AA8D1], AccurateRip returned [C83B3CA5] (AR v2)
No tracks could be verified as accurate
You may have a different pressing from the one(s) in the database
End of status report
---- CUETools DB Plugin V2.1.3
[CTDB TOCID: fcSF7hybkb70qjGyxTJyg2TV9go-] found, Submit result: fcSF7hybkb70qjGyxTJyg2TV9go- has been submitted
[6bd6b88d] (9/9) No match
==== Log checksum 3C807B63968807A308C17372BD113696DA5CEE3B63684B498B7F66C80112F852 ====
CD3скрытый текстExact Audio Copy V1.0 beta 3 from 29. August 2011
EAC extraction logfile from 9. February 2013, 13:26
Gustave Charpentier / Louise, Prêtre 1976 CD3
Used drive : TSSTcorpCDDVDW SE-208AB Adapter: 1 ID: 0
Read mode : Secure
Utilize accurate stream : Yes
Defeat audio cache : Yes
Make use of C2 pointers : No
Read offset correction : 6
Overread into Lead-In and Lead-Out : No
Fill up missing offset samples with silence : Yes
Delete leading and trailing silent blocks : No
Null samples used in CRC calculations : Yes
Used interface : Native Win32 interface for Win NT & 2000
Used output format : Monkey's Audio Lossless Encoder
Selected bitrate : Fast Lossless Compression
Quality : High
Add ID3 tag : Yes
Command line compressor : C:\Program Files\Exact Audio Copy\Monkeys Audio\MAC.exe
Additional command line options : %dest% -t "Artist=%artist%" -t "Title=%title%" -t "Album=%albumtitle%" -t "Year=%year%" -t "Track=%tracknr%" -t "Genre=%genre%" mac.exe %source% %dest% -c3000 -v
TOC of the extracted CD
Track | Start | Length | Start sector | End sector
---------------------------------------------------------
1 | 0:00.00 | 5:12.15 | 0 | 23414
2 | 5:12.15 | 4:43.70 | 23415 | 44709
3 | 9:56.10 | 3:32.72 | 44710 | 60681
4 | 13:29.07 | 8:27.53 | 60682 | 98759
5 | 21:56.60 | 1:10.55 | 98760 | 104064
6 | 23:07.40 | 7:01.47 | 104065 | 135686
7 | 30:09.12 | 4:02.23 | 135687 | 153859
8 | 34:11.35 | 2:50.62 | 153860 | 166671
9 | 37:02.22 | 10:04.58 | 166672 | 212029
10 | 47:07.05 | 4:46.17 | 212030 | 233496
11 | 51:53.22 | 3:27.20 | 233497 | 249041
12 | 55:20.42 | 1:35.08 | 249042 | 256174
Range status and errors
Selected range
Filename E:\Muziek\Gustave Charpentier - Louise, Prêtre 1976 CD3.wav
Peak level 70.6 %
Extraction speed 4.5 X
Range quality 100.0 %
Copy CRC 3FAC07F3
Copy OK
No errors occurred
AccurateRip summary
Track 1 cannot be verified as accurate (confidence 5) [BB73DF74], AccurateRip returned [12F089B8] (AR v2)
Track 2 cannot be verified as accurate (confidence 5) [44A249D1], AccurateRip returned [D275C0D2] (AR v2)
Track 3 cannot be verified as accurate (confidence 5) [1A76EBAD], AccurateRip returned [054F200A] (AR v2)
Track 4 cannot be verified as accurate (confidence 5) [28EF1EBE], AccurateRip returned [5678D218] (AR v2)
Track 5 cannot be verified as accurate (confidence 5) [92841FB9], AccurateRip returned [AF02EA79] (AR v2)
Track 6 cannot be verified as accurate (confidence 5) [AED97E63], AccurateRip returned [3276F909] (AR v2)
Track 7 cannot be verified as accurate (confidence 5) [2098F969], AccurateRip returned [2D47AA66] (AR v2)
Track 8 cannot be verified as accurate (confidence 5) [C3938C08], AccurateRip returned [4A298DAC] (AR v2)
Track 9 cannot be verified as accurate (confidence 5) [4EF6C30D], AccurateRip returned [A610B41E] (AR v2)
Track 10 cannot be verified as accurate (confidence 5) [0854EFEC], AccurateRip returned [C5A9B310] (AR v2)
Track 11 cannot be verified as accurate (confidence 5) [89DDFF46], AccurateRip returned [8A3E225D] (AR v2)
Track 12 cannot be verified as accurate (confidence 5) [C811918F], AccurateRip returned [267F78C8] (AR v2)
No tracks could be verified as accurate
You may have a different pressing from the one(s) in the database
End of status report
---- CUETools DB Plugin V2.1.3
[CTDB TOCID: HQML1YSjtOfqM69xaNqZalZ8E14-] found, Submit result: HQML1YSjtOfqM69xaNqZalZ8E14- has been confirmed
[e7532d05] (7/7) Accurately ripped
==== Log checksum 99481F0B53ED131A67FD5770C601292D7D195016BBA9D7F9F2392112B7D2E616 ====



Показать сообщения:    

Текущее время: 08-Дек 07:03

Часовой пояс: UTC + 3


Вы не можете начинать темы
Вы не можете отвечать на сообщения
Вы не можете редактировать свои сообщения
Вы не можете удалять свои сообщения
Вы не можете голосовать в опросах
Вы не можете прикреплять файлы к сообщениям
Вы не можете скачивать файлы