Но все-таки / Та все ж таки (Игорь Ладенко) [2014 г., Украина, воспоминание о счастье, TVRip] Харьковский "Театр 19"


 

[Цитировать]

Но все-таки / Та все ж таки Название театра: Харьковский "Театр 19".
Год выпуска: 2014.
Страна: Украина .
Жанр: воспоминание о счастье.
Продолжительность: 01:18:16.
Язык: Русский.
Режиссёры: Игорь Ладенко, Борис Квашнев.
Действующие лица и исполнители:
Нази - Наталья Иванская,
Азиз - Олег Дидык,
Искандер - Сергей Листунов.
О спектакле:
По пьесе Мара Баджиева "Дуэль".
"Я - женщина. Меня зовут Нази. Мне двадцать пять лет. Двух молодых мужчин зовут Искандер и Азиз. Больше здесь нет никого..."
Узнав, что герои нашего спектакля молодые женщина и двое мужчин, вы, разумеется, тут же решите, что речь пойдет о любви. И будете совершенно правы. Но это не слезливая мелодрама. Назовем наш спектакль так: воспоминание о счастье...
Эта короткая история длиною в жизнь произошла однажды осенью на берегу знаменитого озера Иссык-Куль. Нази сопровождает на отдыхе своего любовника Искандера. Несмотря на молодость героини, на ее долю выпало уже немало испытаний. Проводя бесконечные дни в одиночестве, пытается отвлечься. Встреча с незнакомцем круто переворачивает довольно мрачную, но уже почти привычную жизнь...
Грустный и вместе с тем очень светлый спектакль сопровождает негромкая фортепианная музыка Павла Игнатьева, создающая неповторимую атмосферу.

Дополнительная информация:
Выпущено: Харьковский "Театр 19", ГТРК "Культура" (Украина).
Автор: Мар Баджиев.
Режиссёр спектакля: Игорь Ладенко.
Музыка: Павел Игнатьев.
Премьера спектакля состоялась 8 июля 2010 года.
Режиссёр телеверсии: Борис Квашнев.
Операторы: Александр Скудар, Сергей Карапищенко, Вячеслав Рыков.

О спектакле.
Релиз
Рип sharky.

Качество видео:...TVRip
Формат:.................AVI
Видео:..704x528 (1.33:1), 25 fps, XviD build 50 ~1791 kbps avg, 0.19 bit/pixel
Аудио:..48 kHz, AC3 Dolby Digital, 2/0 (L,R) ch, ~192 kbps

Отчет MediaInfo

Общее
Полное имя : No.vsyo-taki_Har'kovskij.Teatr.19.2014.XviD.TVRip.fenixclub.avi
Format : AVI
Format/Info : Audio Video Interleave
File size : 1.09 GiB
Duration : 1h 18mn
Overall bit rate : 1 993 Kbps
Writing application : VirtualDubMod 1.5.10.3 | www.virtualdub-fr.org || (build 2550/release)
Writing library : VirtualDubMod build 2550/release
Video
ID : 0
Format : MPEG-4 Visual
Format profile : Advanced Simple@L5
Format settings, BVOP : 1
Format settings, QPel : No
Format settings, GMC : No warppoints
Format settings, Matrix : Default (H.263)
Codec ID : XVID
Codec ID/Hint : XviD
Duration : 1h 18mn
Bit rate : 1 792 Kbps
Width : 704 pixels
Height : 528 pixels
Display aspect ratio : 4:3
Frame rate : 25.000 fps
Color space : YUV
Chroma subsampling : 4:2:0
Bit depth : 8 bits
Scan type : Progressive
Compression mode : Lossy
Bits/(Pixel*Frame) : 0.193
Stream size : 1 003 MiB (90%)
Writing library : XviD 1.2.1 (UTC 2008-12-04)
Audio
ID : 1
Format : AC-3
Format/Info : Audio Coding 3
Mode extension : CM (complete main)
Format settings, Endianness : Big
Codec ID : 2000
Duration : 1h 18mn
Bit rate mode : Constant
Bit rate : 192 Kbps
Channel(s) : 2 channels
Channel positions : Front: L R
Sampling rate : 48.0 KHz
Compression mode : Lossy
Stream size : 107 MiB (10%)
Alignment : Split accross interleaves
Interleave, duration : 40 ms (1.00 video frame)
Interleave, preload duratio : 500 ms.

Скриншоты


Альтернативный хост





Показать сообщения:    

Текущее время: 10-Дек 02:12

Часовой пояс: UTC + 3


Вы не можете начинать темы
Вы не можете отвечать на сообщения
Вы не можете редактировать свои сообщения
Вы не можете удалять свои сообщения
Вы не можете голосовать в опросах
Вы не можете прикреплять файлы к сообщениям
Вы не можете скачивать файлы