(Classical) Wolfgang Amadeus Mozart - Requiem - Lunn, Hellier, Hobbs, Brook, Dunedin Consort, John Butt - 2014, FLAC (image+.cue) lossless


Статистика раздачи [Обновить пиров]
Размер:  307 MB   |    Зарегистрирован:  1 год 1 месяц   |    Скачан:  1 раз

Полного источника не было: 5 месяцев 18 дней

Личеров:  1  [  0 KB/s  ]   Подробная статистика пиров
 
   
 
 
 

[Цитировать]

Wolfgang Amadeus Mozart - Requiem - Lunn, Hellier, Hobbs, Brook, Dunedin Consort, John Butt
Жанр: Classical
Страна-производитель диска: UK
Год издания диска: 2014
Издатель (лейбл): Linn Records
Номер по каталогу: CKD 449
Дата записи: 2013
Аудиокодек: FLAC
Тип рипа: image+.cue
Битрейт аудио: lossless
Продолжительность: 61:41
Источник: собственный рип
Наличие сканов в содержимом раздачи: да
Треклист:
Wolfgang Amadeus Mozart
[1]-[16] Requiem in D minor, K.626
Reconstruction of the first public performance, in the completion by
Franz Xaver Süssmayr, given at the Jahn-Saal, Vienna, 2 January 1793
[17] Misericordias Domini
[18]-[19] Reconstruction of music performed at the Requiem Mass for Mozart 10 December 1791
Исполнители:
Joanne Lunn soprano
Rowan Hellier alto
Thomas Hobbs tenor
Matthew Brook bass
Dunedin Consort
John Butt
director

Лог создания рипа

Exact Audio Copy V1.0 beta 3 from 29. August 2011
EAC extraction logfile from 21. March 2015, 19:17
Dunedin Consort , John Butt / Mozart - Requiem
Used drive : HL-DT-STDVDRAM GU70N Adapter: 0 ID: 0
Read mode : SecureUtilize accurate stream : YesDefeat audio cache : YesMake use of C2 pointers : No
Read offset correction : 48Overread into Lead-In and Lead-Out : NoFill up missing offset samples with silence : YesDelete leading and trailing silent blocks : NoNull samples used in CRC calculations : YesUsed interface : Native Win32 interface for Win NT & 2000
Used output format : User Defined EncoderSelected bitrate : 128 kBit/sQuality : HighAdd ID3 tag : NoCommand line compressor : C:\Program Files (x86)\Exact Audio Copy\Flac\flac.exeAdditional command line options : -V -8 -T "Date=%year%" -T "Genre=%genre%" %source%
TOC of the extracted CD
Track | Start | Length | Start sector | End sector --------------------------------------------------------- 1 | 0:00.00 | 4:28.10 | 0 | 20109 2 | 4:28.10 | 2:31.70 | 20110 | 31504 3 | 7:00.05 | 1:49.06 | 31505 | 39685 4 | 8:49.11 | 3:18.42 | 39686 | 54577 5 | 12:07.53 | 1:57.03 | 54578 | 63355 6 | 14:04.56 | 4:51.05 | 63356 | 85185 7 | 18:55.61 | 2:33.72 | 85186 | 96732 8 | 21:29.58 | 3:02.65 | 96733 | 110447 9 | 24:32.48 | 3:15.17 | 110448 | 125089 10 | 27:47.65 | 2:18.14 | 125090 | 135453 11 | 30:06.04 | 1:40.34 | 135454 | 142987 12 | 31:46.38 | 1:34.72 | 142988 | 150109 13 | 33:21.35 | 5:16.60 | 150110 | 173869 14 | 38:38.20 | 2:55.59 | 173870 | 187053 15 | 41:34.04 | 2:45.29 | 187054 | 199457 16 | 44:19.33 | 2:44.31 | 199458 | 211788 17 | 47:03.64 | 7:20.10 | 211789 | 244798 18 | 54:23.74 | 4:29.17 | 244799 | 264990 19 | 58:53.16 | 2:46.19 | 264991 | 277459
Range status and errors
Selected range
Filename C:\temp\Mozart - Requiem - Dunedin Consort, Butt\Mozart - Requiem.wav
Peak level 94.6 % Extraction speed 2.2 X Range quality 99.9 % Test CRC E46C06CB Copy CRC E46C06CB Copy OK
No errors occurred
AccurateRip summary
Track 1 accurately ripped (confidence 9) [88B170A0] (AR v2)Track 2 accurately ripped (confidence 9) [A3EB7391] (AR v2)Track 3 accurately ripped (confidence 10) [9F9E800E] (AR v2)Track 4 accurately ripped (confidence 9) [F1D54F28] (AR v2)Track 5 accurately ripped (confidence 9) [6166D058] (AR v2)Track 6 accurately ripped (confidence 9) [01D33E48] (AR v2)Track 7 accurately ripped (confidence 9) [2D562546] (AR v2)Track 8 accurately ripped (confidence 9) [15586962] (AR v2)Track 9 accurately ripped (confidence 10) [7774671A] (AR v2)Track 10 accurately ripped (confidence 9) [C0E829E4] (AR v2)Track 11 accurately ripped (confidence 9) [16FA83E5] (AR v2)Track 12 accurately ripped (confidence 10) [C4DAA984] (AR v2)Track 13 accurately ripped (confidence 9) [D93C8F31] (AR v2)Track 14 accurately ripped (confidence 9) [BAA3835E] (AR v2)Track 15 accurately ripped (confidence 9) [56F2CDF5] (AR v2)Track 16 accurately ripped (confidence 9) [C5BDC107] (AR v2)Track 17 accurately ripped (confidence 9) [0836513C] (AR v2)Track 18 accurately ripped (confidence 9) [B70120F0] (AR v2)Track 19 accurately ripped (confidence 9) [E5CD6706] (AR v2)
All tracks accurately ripped
End of status report
==== Log checksum 9724149F6A8B37BB168530431B2094DAF1DBF8BC567A6C82F966F3EF39D6AB4C ====
[teatrix.ru].t10178.torrent 
Торрент: Зарегистрирован [ 2015-10-29 04:25 ] · 38F24D45CAD322D6C079FEAE43646E618EECD8EC

Скачать .torrent

Скачать

25 KB

Статус: проверено
Скачан: 1 раз
Размер: 307 MB
terms.php



Быстрый ответ

Имя:

      
Для отправки сообщений необходимо включить JavaScript
Показать сообщения:    

Текущее время: 05-Дек 23:36

Часовой пояс: UTC + 3


Вы можете начинать темы
Вы можете отвечать на сообщения
Вы не можете редактировать свои сообщения
Вы не можете удалять свои сообщения
Вы не можете голосовать в опросах
Вы не можете прикреплять файлы к сообщениям
Вы можете скачивать файлы