(Classical, choral) Alfred Deller - The Complete Vanguard Recordings - Volume 5 - English, French and Italian Madrigals - Alfred Deller, The Deller Consort - 6CD - 2008, FLAC (image+.cue), lossless


Статистика раздачи [Обновить пиров]
Размер:  1.85 GB   |    Зарегистрирован:  1 год 1 месяц   |    Скачан:  1 раз

Полного источника не было: 1 месяц 7 дней

Личеров:  1  [  0 KB/s  ]   Подробная статистика пиров
 
   
 
 
 

[Цитировать]

Alfred Deller - The Complete Vanguard Recordings - Volume 5 - English, French and Italian Madrigals - Alfred Deller, The Deller Consort
Жанр: Classical, choral
Год выпуска диска: 2008
Производитель диска: Vanguard Classics
Аудио кодек: FLAC
Тип рипа: image+.cue
Битрейт аудио: lossless
Продолжительность: 7:00:29
Пятый том. Мадригалы: английские, французские, итальянские...
Первые 4 тома:
Volume 1 - Folk Songs and Ballads (7CD)
Volume 2: Music of Purcell (6CD)

Volume 3: Christmas Carols and Motets (4CD)
Volume 4: Music of Handel, Bach and the English Renaissance (6CD)

Продолжение:
Volume 6: French and Italian Discoveries 1200-1700 (6CD)
Трэклист:
CD 1:
Madrigals of Thomas Morley and John Wilbye
Thomas Morley
1 The First Booke of Balletts to Five Voyces (1595) - III: Now is the month of maying 1:47
2 Madrigalls to Foure Voyces... The First Booke (1594) - VII: In dew of roses 2:48
3 The First Booke of Balletts to Five Voyces (1595) - II: Shoot, false Love, I care not 2:41
4 The First Booke of Canzonets to Two Voyces (1595) - VII: Miraculous love's wounding! 2:26
5 Madrigals to 3, 4, 5 Voyces (1597) - VIII: Hark, alleluia cheerly 2:11
6 Canzonets or Little Short Songs to Three Voyces (1593) - XX: Arise, get up, my dear 1:53
7 The First Booke of Balletts to Five Voyces (1595) - XIX: Leave this tormenting 3:40
8 Madrigalls to Foure Voyces... The First Booke (1595) - V: I go before, my darling 1:28
9 The First set of English Madrigals (1594) - XX: Say, gentle nymphs 2:40
10 Canzonets or Little Short Songs to Three Voyces (1595) - VI: Good morrow, fair ladies 2:15
11 Madrigalls to Foure Voyces... The First Booke (1594) - April is in my mistress' face 1:32
12 Canzonets or Little Short Songs to Three Voyces (1593) - XXIII: Though Philomela lost her love 1:12
13 The Triumphes of Oriana (1601) - XXIII: Hard by a crystal fountain 4:34
14 Canzonets or Little Short Songs to Three Voyces (1593) - VII: Whiter away, so fast 2:23
15 Canzonets or Little Short Aers to Five and Sixe Voyces (1597) - XVII: I follow, lo, the footing 2:20
16 VII: O grief! 2:07
17 The First Booke of Canzonets to Two Voyces (1595) - VII: When, lo, by break of morning 1:54
18 Madrigalls to Foure Voyces... The First Booke (1594) - XIV: Besides a fountain 2:05
19 The First Booke of Balletts to Five Voyces (1595) - XIV: Fire! Fire! my heart 3:58
John Wilbye
20 The First Set of English Madrigals (1598) - XI: Thus saith my Cloris bright 1:28
21 The second set of madrigals (1609) - XVI: Happy, O happy he, who not affecting 3:33
22 XXV: Ye that do live in pleasures plenty 2:50
23 XXX: Ah, cannot sigh, nor tears, nor aught else move thee 4:17
24 XXXII: Stay, Corydon, thou swain 2:49
25 XXXI: Draw on, sweet Night, best friend unto those cares 5:52
26 The First Set of English Madrigals (1598) - XVIII: Lady your words do spite me 2:06
27 The second set of madrigals (1609) - V: As fair as morn, as fresh as May 2:06
28 XXIII: Weep, weep, mine eyes, my heart can take no rest 5:33
The Deller Consort /Alfred Deller, director
April Cantelo, soprano / Eileen McLoughlin, soprano / Alfred Deller, counter-tenor / Wilfred Brown, tenor / Gerald English, tenor / Maurice Bevan, baritone
CD 2:
The English Madrigal School
1 Thomas Morley: Madrigals to Foure Voyces (1594) - XVIII: Ho! Who comes here? 2:11
2 Thomas Weelkes: Madrigals to 3, 4, 5 voyces (1597) - VI: Cease sorrows now 3:50
3 Thomas Vautor: Songs of divers Ayres and Natures (1619) - IV: Mother, I will have a husband 1:47
4 Richard Edwards: The Mulliner Book - In going to my naked bed 2:26
5 Thomas Weelkes: Balletts and Madrigals (1598) - II: To shorten Winter's sadness 2:04
6 Madrigals of 5 (and 6) (1600) - O Care, thou wilt despatch me 5:44
7 John Bartlett: A Booke of Ayres (1606) - 10: Of all the birds that I do know 2:03
8 John Bennet: The Triumphes of Oriana (1601) - IV: All creatures are now merry-minded 2:13
9 Thomas Morley: The First Booke of Canzonets (1595) - III: Sweet nymph 1:51
10 John Bennet: Madrigalls to Foure Voyces (1599) - XIII: Weep O mine eyes 3:15
11 Thomas Weelkes: Ayres or Phantasticke Spirites (1608) - X: The Ape, the Monkey and the Baboon 1:31
12 John Wilbye: The Second Set of Madrigals (1609) - XX: Oft have I vowed 4:34
13 Thomas Weelkes: Ayres or Phantasticke Spirites (1608) - XVIII:Strike it up, Tabor 1:48
14 John Ward: The First Set of English Madrigals (1613) - XVII: Hope of my heart 4:35
15 Thomas Wilbye: The Second Set of Madrigals (1609) - XVII-XVIII: Sweet honey-sucking bees 4:45
16 Robert Johnson: Defiled is my name 4:35
17 Thomas Weelkes: Ballets and Madrigals for Five Voices (1598) - V: On the plains, fairy trains 1:34
18 Richard Edwards: When griping griefs 3:45
19 Thomas Weelkes: Ballets and Madrigal for Five Voices (1598) - I: All at once well met 2:48
20 Thomas Tallis: Like as the doleful dove 2:25
21 Anon.: The bitter sweet 3:23
22 John Wilbye: The First Set of English Madrigals (1598) - XXII: Flora gave me fairest flowers 1:43
23 John Shepherd: O happy dames 2:28
24 Thomas Weelkes: Madrigals to 3, 4, 5 Voyces (1597) - VIII: Young cupid hath proclaimed 2:03
25 Anon.: The happy life (My friends, the thing I smile to see) 2:21
26 Thomas Weelkes: Madrigals of 6 parts (1600) - VII: Thule, the period of cosmography 3:06
The Deller Consort /Alfred Deller, director
April Cantelo, soprano / Eileen McLoughlin, soprano / Alfred Deller, counter-tenor / Wilfred Brown, tenor / Gerald English, tenor / Maurice Bevan, baritone
CD 3:
The Silver Swan
1 Orlando Gibbons: First Set of Madrigals and Motets of 5 Parts, 1612 - The silver swan 2:04
2 Francis Pilkington: The First Book of Songs or Ayres of 4 Parts, 1605 - Rest, sweet nymphs 3:54
3 Diaphenia like the daffdowndilly 1:36
4 Orlando Gibbons: First Set of Madrigals and Motets of 5 Parts, 1612 - What is our life 5:00
5 William Byrd: Psalmes, Sonets, & Songs of Sadness and Pietie, 1588 - Though Amaryllis dance 2:22
6 Orlando Gibbons: First Set of Madrigals and Motets of 5 Parts, 1612 - Ah! Dear heart 2:21
7 William Byrd: Psalmes, Songs and Sonnets, 1611 - This sweet and merry month 4:30
8 Orlando Gibbons: First Set of Madrigals and Motets of 5 Parts, 1612 - Dainty, fine bird 2:24
9 Francis Pilkington: First Set of Madrigals and Pastorals, 1613 - Have I found her 2:25
10 Second Set of Madrigals and Pastorals, 1624 - O softly singing lute 4:19
11 First Set of Madrigals and Pastorals, 1613 - Amyntas with his Phyllis fair 1:51
12 John Ward: First Set of English Madrigals, 1613 - Retire, my troubled soul 3:36
13 Upon a bank with roses 2:49
14 Out from the vale 3:37
15 Anon.: I smile to see how you devise 2:18
16 Robert Johnson: Benedicam Domino 2:51
John Wilbye
17 The First Set of English Madrigals (1598) - X: Lady, when I behold 4:03
18 XII: Adieu, sweet Amaryllis 2:47
19 XVI: I always beg, yet never am relieved 2:22
20 XVII: Thus love commands that I in vain complain me 2:24
21 The Second set of madrigals (1609) - XX: Oft I have vowed how dearly I did love thee 4:01
22 I: Come, shepherd, swains, that wont to hear me sing 3:06
23 The Triumphs of Oriana, (1601) - XV: The Lady Oriana 2:32
24 Robert Jones: The Triumph of Oriana - Fair Oriana seeming to wink at folly 2:40
The Deller Consort /Alfred Deller, director
April Cantelo, soprano (1-23) / Eileen McLoughlin, soprano (1-23) / Honor Sheppard, soprano (24) / Mary Thomas, soprano (24) / Alfred Deller, counter-tenor / Wilfred Brown, tenor (1-23) / Gerald English, tenor (15-23) / Robert Tear, tenor (24) / Maurice Bevan, baritone
CD 4:
French and English Madrigal Masterpieces
1 Guillaume Costeley: Noels - Allons gay bergeres 1:42
2 Mignonne, allons voir si la rose 2:07
3 Pierre Passereau: Il est bel et bon 1:27
4 Clement Janequin: Le Chant des oiseaux 5:45
5 Josquin Desprez: La deploration de Jehan Ockeghem 5:14
6 Parfons regretz 3:09
7 Orlando Lasso: La nuit froide et sombre (text: Joachim Du Bellay) 3:13
8 Clement Janequin: Le chant de l'Alouette 2:51
9 31 Chansons Musicales, Attaignant, 1529 - Ce moys de may 0:49
10 La bataille de Marignan (aka La Guerre) 5:51
11 Au joly boys 1:52
12 Orlando Lasso: Chansons a 5, 1560 - Mon coeur se recommande a vous 2:15
13 William Byrd: Psalms, Sonets & Songs of Sadness and Pietie, 1588 - Lullaby, my sweet little baby 6:06
14 Thomas Morley: The First Booke of Balletts to Five Voyces (1595) - III: Now is the month maying 1:47
15 Thomas Tomkins: Songs or Madrigal for five voices, 1622 - When David heard that Absalon was slain 4:52
The Deller Consort /Alfred Deller, director
Honor Sheppard, soprano (1-3) / Mary Thomas, soprano (1-3, 9-15) / Sally Le Sage, soprano (4-8) / Eileen Poulter, soprano (9-15) / Alfred Deller, counter-tenor / Robert Tear, tenor (1-3) / Max Worthley, tenor (4-8) / Philip Todd, tenor (4-8) / Wilfred Brown, tenor (9-15) / Gerald English, tenor (9-15) / Maurice Bevan, baritone / Geoffry Colleby, bass (9-15)
CD 5:
Claudio Monteverdi: Madrigali amorosi / Italian Madrigal Masterpieces
Claudio Monteverdi: Ottavo libro de' madrigali "Madrigali guerrieri, et amorosi ..." (Venice, 1638)
Altri canti di Marte e di sua schiera (sv155) (text: Marino)

1 Part I: Altri canti di Marte e di sua schiera 3:47
2 Part II: Due belli occhi fur l'armi onde trafitto 3:52
3 Claudio Monteverdi: Vago augelletto che cantando vai (sv156) (text: Petrarch) 4:42
4 Claudio Monteverdi: Mentre vaga angioletta (sv157) (text: Guarini) 9:11
Claudio Monteverdi: Ninfa che scalza il piede e sciolto il crine (sv160)
5 Part I: Ninfa che scalza il piede e sciolto il crine 1:19
6 Part II: Qui deh meco t'arresta, ove di fiori 1:28
7 Part III: Dell'usate mie corde al suon potrai 2:33
8 Claudio Monteverdi: Dolcissimo uscignolo, "cantato a voce piena, alla francese" (sv161) (text: Guarini) 3:59
9 Claudio Monteverdi: Chi vole aver felice e lieto il core, "cantato a voce piena, alla francese" (sv162) (text: Guarini) 2:12
Claudio Monteverdi: Lamento della Ninfa (sv163) text: O. Rinuccini)
10 Part I: Non havea Febio ancora 1:40
11 Part II: Amor, dicea 3:14
12 Part III: Si tra sdegnosi pianti 0:55
13 Claudio Monteverdi: Perche te'n fuggi, o Fillide? (sv164) (text: O. Rinuccini) 6:07
14 Claudio Monteverdi: Non partir, ritrosetta (sv165) 2:18
15 Claudio Monteverdi: Su, su, su, pastorelli vezzosi (sv166) 1:47
16 Luca Marenzio: Cedan l'antiche tue chiare vittorie 4:43
17 Orlando Lasso: Villanelle, Moresche, et altre canzoni (1581) - Matona mia cara 2:15
18 Luca Marenzio: Third Book of Madrigals for five voices (1582) - Scaldava il sol 2:25
19 Ninth Book of Madrigals - Solo e pensoso 5:32
20 Il Trionfo di Dori - Leggiadre ninfe 1:45
21 Cipriano de Rore: Primo Libro di Madrigali a 4 (1547) - Anchor che col partire (text: Alfonso d'Avalos and Marquis del Vasto) 3:37
22 Jacob Arcadelt: First Book of Madrigals - Il bianco e dolce cigno 2:46
The Deller Consort /Alfred Deller, director
April Cantelo, soprano (1-15) / Eileen McLoughlin, soprano (1-15) / Honor Sheppard, soprano (16, 19-22) / Sally Le Sage, soprano (16) / Eileeen Poulter, soprano (17-18) / Mary Thomas, soprano (17-22) / Alfred Deller, counter-tenor / Wilfred Brown, tenor (1-15, 17-18) / Gerald English, tenor (1-15, 17-18) / Max Worthley, tenor (16, 19-22) / Philip Todd, tenor (16) / Robert Tear, tenor (19-22) / Maurice Bevan, baritone / John Frost, bass (1-15) / Geoffry Colleby, bass (17-18)
CD 6:
Madrigals of Claudio Monteverdi and Don Carlo Gesualdo
Claudio Monteverdi: Il sesto libro de' madrigali (Venice, 1614) - Lagrime d'amante al sepolcro dell'amata, sv111 (text: O. Rinuccini)
1 Incenerite spoglie, avara tomba 2:44
2 Ditelo, o fiumi, e voi ch'udiste Glauco 1:39
3 Dara la notte il sol lume alla terra 3:06
4 Ma te raccoglie, o ninfa, in grembo il cielo 3:40
5 O chiome d'or, neve gentil del seno 3:07
6 Dunque, amate reliquie, un mar di pianto 4:33
7 Claudio Monteverdi: Il sesto libro de' madrigali (Venice, 1614) - Zefiro torna e'l bel tempo rimena, sv108 (text: Petrarch) 4:03
Claudio Monteverdi: Il sesto libro de' madrigali (Venice, 1614) - Lamento d'Arianna, sv107 (text: O. Rinuccini)
8 Lasciatemi morire 2:14
9 O Teseo, o Teseo mio 6:05
10 Dove, dov'e la fede 3:29
11 Ahi che non pur risponde 4:29
12 Claudio Monteverdi: Il sesto libro de' madrigali (Venice, 1614) - Oime il bel viso, ohime il soave sguardo, sv112 (text: Petrarch) 6:12
13 Claudio Monteverdi: Madrigali, libro primo (Venice, 1587) - Baci soavi e cari, sv27 (text: Guarini) 4:00
14 Claudio Monteverdi: Il secondo libro de' madrigali (Venice, 1590) - Ecco mormorar l'onde, sv51 (text: T. Tasso) 4:10
15 Claudio Monteverdi: Il quarto libro de' madrigali (Venice, 1603) - A un giro sol de bell'occhi lucenti, sv84 (text: Guarini) 3:07
16 Non piu guerra, pietate, sv88 (text: Guarini) 2:33
17 Sfogava con le stelle, sv78 (text: Rinuccini [?]) 3:29
18 Don Carlo Gesualdo: Il Sesto Libro di Madrigali (1613) - Belta poi che t'assenti 4:03
19 Don Carlo Gesualdo: Il Quatro Libro di Madrigali (1596) - Ecco moriro dunque: Hai, gia mi disco loro 4:33
20 Don Carlo Gesualdo: 6th Book of Madrigals - Morro lasso al mio duolo 4:05
The Deller Consort /Alfred Deller, director
Mary Thomas, soprano (1-7, 13-17, 19, 20) / Honor Sheppard, soprano (1-12, 18, 20) / Sally Le Sage, soprano (8-12, 18) / Eileen Poulter, soprano (13-17, 19) / Alfred Deller, counter-tenor / Robert Tear, tenor (1-7, 20) / Max Worthley, tenor (1-12, 18, 20) / Philip Todd, tenor (8-12, 18) / Wilfred Brown, tenor (13-17, 19) / Gerald English, tenor (13-17, 19) / Maurice Bevan, baritone / Geoffry Colleby, bass (13-17, 19)
Доп. информация:
CD1 EAC logExact Audio Copy V0.99 prebeta 5 from 4. May 2009
EAC extraction logfile from 31. May 2010, 1:07
The Deller Consort, Alfred Deller / English, French and Italian Madrigals. CD 1: Madrigals of Thomas Morley and John Wilbye
Used drive : HL-DT-STDVDRAM GSA-4083N Adapter: 1 ID: 0
Read mode : Secure
Utilize accurate stream : Yes
Defeat audio cache : Yes
Make use of C2 pointers : No
Read offset correction : 667
Overread into Lead-In and Lead-Out : No
Fill up missing offset samples with silence : Yes
Delete leading and trailing silent blocks : No
Null samples used in CRC calculations : No
Used interface : Native Win32 interface for Win NT & 2000
Used output format : User Defined Encoder
Selected bitrate : 768 kBit/s
Quality : High
Add ID3 tag : No
Command line compressor : C:\Program Files\Exact Audio Copy\FLAC\FLAC.EXE
Additional command line options : -6 -V -T "ARTIST=%a" -T "TITLE=%t" -T "ALBUM=%g" -T "DATE=%y" -T "TRACKNUMBER=%n" -T "GENRE=%m" -T "COMMENT=%e" %s -o %d
TOC of the extracted CD
Track | Start | Length | Start sector | End sector
---------------------------------------------------------
1 | 0:00.00 | 1:48.00 | 0 | 8099
2 | 1:48.00 | 2:48.44 | 8100 | 20743
3 | 4:36.44 | 2:41.18 | 20744 | 32836
4 | 7:17.62 | 2:27.00 | 32837 | 43861
5 | 9:44.62 | 2:11.50 | 43862 | 53736
6 | 11:56.37 | 1:53.50 | 53737 | 62261
7 | 13:50.12 | 3:40.61 | 62262 | 78822
8 | 17:30.73 | 1:28.37 | 78823 | 85459
9 | 18:59.35 | 2:40.63 | 85460 | 97522
10 | 21:40.23 | 2:15.21 | 97523 | 107668
11 | 23:55.44 | 1:32.39 | 107669 | 114607
12 | 25:28.08 | 1:12.27 | 114608 | 120034
13 | 26:40.35 | 4:34.20 | 120035 | 140604
14 | 31:14.55 | 2:23.54 | 140605 | 151383
15 | 33:38.34 | 2:19.66 | 151384 | 161874
16 | 35:58.25 | 2:07.68 | 161875 | 171467
17 | 38:06.18 | 1:54.25 | 171468 | 180042
18 | 40:00.43 | 2:05.16 | 180043 | 189433
19 | 42:05.59 | 3:59.41 | 189434 | 207399
20 | 46:05.25 | 1:27.13 | 207400 | 213937
21 | 47:32.38 | 3:33.65 | 213938 | 229977
22 | 51:06.28 | 2:50.08 | 229978 | 242735
23 | 53:56.36 | 4:17.64 | 242736 | 262074
24 | 58:14.25 | 2:49.50 | 262075 | 274799
25 | 61:04.00 | 5:52.48 | 274800 | 301247
26 | 66:56.48 | 2:06.49 | 301248 | 310746
27 | 69:03.22 | 2:06.12 | 310747 | 320208
28 | 71:09.34 | 5:32.65 | 320209 | 345173
Range status and errors
Selected range
Filename F:\Music\Deller - Vol.5\Alfred Deller - English, French and Italian Madrigals. CD1.wav
Peak level 100.0 %
Range quality 100.0 %
Copy CRC 50B6C287
Copy OK
No errors occurred
End of status reportCD2 EAC logExact Audio Copy V0.99 prebeta 5 from 4. May 2009
EAC extraction logfile from 2. June 2010, 16:20
The Deller Consort, Alfred Deller / Alfred Deller - English, French and Italian Madrigals. CD 2: The English Madrigal School
Used drive : Optiarc DVD+-RW AD-5170S Adapter: 1 ID: 2
Read mode : Secure
Utilize accurate stream : Yes
Defeat audio cache : Yes
Make use of C2 pointers : No
Read offset correction : 48
Overread into Lead-In and Lead-Out : No
Fill up missing offset samples with silence : Yes
Delete leading and trailing silent blocks : No
Null samples used in CRC calculations : No
Used interface : Native Win32 interface for Win NT & 2000
Used output format : User Defined Encoder
Selected bitrate : 768 kBit/s
Quality : High
Add ID3 tag : No
Command line compressor : C:\Program Files\Exact Audio Copy\FLAC\FLAC.EXE
Additional command line options : -6 -V -T "ARTIST=%a" -T "TITLE=%t" -T "ALBUM=%g" -T "DATE=%y" -T "TRACKNUMBER=%n" -T "GENRE=%m" -T "COMMENT=%e" %s -o %d
TOC of the extracted CD
Track | Start | Length | Start sector | End sector
---------------------------------------------------------
1 | 0:00.00 | 2:11.14 | 0 | 9838
2 | 2:11.14 | 3:51.23 | 9839 | 27186
3 | 6:02.37 | 1:47.20 | 27187 | 35231
4 | 7:49.57 | 2:26.52 | 35232 | 46233
5 | 10:16.34 | 2:04.12 | 46234 | 55545
6 | 12:20.46 | 5:44.62 | 55546 | 81407
7 | 18:05.33 | 2:03.39 | 81408 | 90671
8 | 20:08.72 | 2:13.39 | 90672 | 100685
9 | 22:22.36 | 1:51.20 | 100686 | 109030
10 | 24:13.56 | 3:15.43 | 109031 | 123698
11 | 27:29.24 | 1:31.55 | 123699 | 130578
12 | 29:01.04 | 4:34.41 | 130579 | 151169
13 | 33:35.45 | 1:48.07 | 151170 | 159276
14 | 35:23.52 | 4:35.60 | 159277 | 179961
15 | 39:59.37 | 4:45.35 | 179962 | 201371
16 | 44:44.72 | 4:35.01 | 201372 | 221997
17 | 49:19.73 | 1:34.61 | 221998 | 229108
18 | 50:54.59 | 3:45.49 | 229109 | 246032
19 | 54:40.33 | 2:48.45 | 246033 | 258677
20 | 57:29.03 | 2:25.33 | 258678 | 269585
21 | 59:54.36 | 3:24.17 | 269586 | 284902
22 | 63:18.53 | 1:42.62 | 284903 | 292614
23 | 65:01.40 | 2:28.60 | 292615 | 303774
24 | 67:30.25 | 2:03.57 | 303775 | 313056
25 | 69:34.07 | 2:21.32 | 313057 | 323663
26 | 71:55.39 | 3:06.29 | 323664 | 337642
Range status and errors
Selected range
Filename D:\Archive\music\Deller\CD5-2\Alfred Deller - English, French and Italian Madrigals. CD2.wav
Peak level 97.3 %
Range quality 99.9 %
Test CRC C0668345
Copy CRC C0668345
Copy OK
No errors occurred
End of status reportCD3 EAC logExact Audio Copy V0.99 prebeta 5 from 4. May 2009
EAC extraction logfile from 2. June 2010, 21:35
The Deller Consort, Alfred Deller / English, French and Italian Madrigals. CD 3: The Silver Swan
Used drive : HL-DT-STDVDRAM GSA-4083N Adapter: 1 ID: 0
Read mode : Secure
Utilize accurate stream : Yes
Defeat audio cache : Yes
Make use of C2 pointers : No
Read offset correction : 667
Overread into Lead-In and Lead-Out : No
Fill up missing offset samples with silence : Yes
Delete leading and trailing silent blocks : No
Null samples used in CRC calculations : No
Used interface : Native Win32 interface for Win NT & 2000
Used output format : User Defined Encoder
Selected bitrate : 768 kBit/s
Quality : High
Add ID3 tag : No
Command line compressor : C:\Program Files\Exact Audio Copy\FLAC\FLAC.EXE
Additional command line options : -6 -V -T "ARTIST=%a" -T "TITLE=%t" -T "ALBUM=%g" -T "DATE=%y" -T "TRACKNUMBER=%n" -T "GENRE=%m" -T "COMMENT=%e" %s -o %d
TOC of the extracted CD
Track | Start | Length | Start sector | End sector
---------------------------------------------------------
1 | 0:00.00 | 2:04.40 | 0 | 9339
2 | 2:04.40 | 3:55.04 | 9340 | 26968
3 | 5:59.44 | 1:36.10 | 26969 | 34178
4 | 7:35.54 | 4:59.71 | 34179 | 56674
5 | 12:35.50 | 2:22.53 | 56675 | 67377
6 | 14:58.28 | 2:21.50 | 67378 | 78002
7 | 17:20.03 | 4:30.39 | 78003 | 98291
8 | 21:50.42 | 2:24.04 | 98292 | 109095
9 | 24:14.46 | 2:25.66 | 109096 | 120036
10 | 26:40.37 | 4:19.08 | 120037 | 139469
11 | 30:59.45 | 1:51.39 | 139470 | 147833
12 | 32:51.09 | 3:36.50 | 147834 | 164083
13 | 36:27.59 | 2:49.26 | 164084 | 176784
14 | 39:17.10 | 3:37.30 | 176785 | 193089
15 | 42:54.40 | 2:18.16 | 193090 | 203455
16 | 45:12.56 | 2:51.46 | 203456 | 216326
17 | 48:04.27 | 4:03.64 | 216327 | 234615
18 | 52:08.16 | 2:47.29 | 234616 | 247169
19 | 54:55.45 | 2:22.14 | 247170 | 257833
20 | 57:17.59 | 2:24.65 | 257834 | 268698
21 | 59:42.49 | 4:01.45 | 268699 | 286818
22 | 63:44.19 | 3:06.11 | 286819 | 300779
23 | 66:50.30 | 2:29.32 | 300780 | 311986
24 | 69:19.62 | 2:42.42 | 311987 | 324178
Range status and errors
Selected range
Filename F:\Music\Deller - Vol.5\Alfred Deller - English, French and Italian Madrigals. CD3.wav
Peak level 100.0 %
Range quality 100.0 %
Copy CRC A738ADDC
Copy OK
No errors occurred
End of status reportCD4 EAC logExact Audio Copy V0.99 prebeta 5 from 4. May 2009
EAC extraction logfile from 2. June 2010, 22:09
The Deller Consort, Alfred Deller / English, French and Italian Madrigals. CD 4: French and English Madrigal Masterpieces
Used drive : HL-DT-STDVDRAM GSA-4083N Adapter: 1 ID: 0
Read mode : Secure
Utilize accurate stream : Yes
Defeat audio cache : Yes
Make use of C2 pointers : No
Read offset correction : 667
Overread into Lead-In and Lead-Out : No
Fill up missing offset samples with silence : Yes
Delete leading and trailing silent blocks : No
Null samples used in CRC calculations : No
Used interface : Native Win32 interface for Win NT & 2000
Used output format : User Defined Encoder
Selected bitrate : 768 kBit/s
Quality : High
Add ID3 tag : No
Command line compressor : C:\Program Files\Exact Audio Copy\FLAC\FLAC.EXE
Additional command line options : -6 -V -T "ARTIST=%a" -T "TITLE=%t" -T "ALBUM=%g" -T "DATE=%y" -T "TRACKNUMBER=%n" -T "GENRE=%m" -T "COMMENT=%e" %s -o %d
TOC of the extracted CD
Track | Start | Length | Start sector | End sector
---------------------------------------------------------
1 | 0:00.00 | 1:42.62 | 0 | 7711
2 | 1:42.62 | 2:07.40 | 7712 | 17276
3 | 3:50.27 | 1:22.72 | 17277 | 23498
4 | 5:13.24 | 5:45.48 | 23499 | 49421
5 | 10:58.72 | 5:15.00 | 49422 | 73046
6 | 16:13.72 | 3:09.10 | 73047 | 87231
7 | 19:23.07 | 3:13.29 | 87232 | 101735
8 | 22:36.36 | 2:51.05 | 101736 | 114565
9 | 25:27.41 | 0:48.55 | 114566 | 118220
10 | 26:16.21 | 5:51.02 | 118221 | 144547
11 | 32:07.23 | 1:52.07 | 144548 | 152954
12 | 33:59.30 | 2:15.41 | 152955 | 163120
13 | 36:14.71 | 6:06.60 | 163121 | 190630
14 | 42:21.56 | 1:47.15 | 190631 | 198670
15 | 44:08.71 | 4:51.45 | 198671 | 220540
Range status and errors
Selected range
Filename F:\Music\Deller - Vol.5\Alfred Deller - English, French and Italian Madrigals. CD4.wav
Peak level 80.5 %
Range quality 100.0 %
Copy CRC E4E7D0C0
Copy OK
No errors occurred
End of status reportCD5 EAC logExact Audio Copy V0.99 prebeta 5 from 4. May 2009
EAC extraction logfile from 3. June 2010, 0:17
The Deller Consort, Alfred Deller / English, French and Italian Madrigals. CD 5: Claudio Monteverdi: Madrigali amorosi / Italian Madrigal Masterpieces
Used drive : HL-DT-STDVDRAM GSA-4083N Adapter: 1 ID: 0
Read mode : Secure
Utilize accurate stream : Yes
Defeat audio cache : Yes
Make use of C2 pointers : No
Read offset correction : 667
Overread into Lead-In and Lead-Out : No
Fill up missing offset samples with silence : Yes
Delete leading and trailing silent blocks : No
Null samples used in CRC calculations : No
Used interface : Native Win32 interface for Win NT & 2000
Used output format : User Defined Encoder
Selected bitrate : 768 kBit/s
Quality : High
Add ID3 tag : No
Command line compressor : C:\Program Files\Exact Audio Copy\FLAC\FLAC.EXE
Additional command line options : -6 -V -T "ARTIST=%a" -T "TITLE=%t" -T "ALBUM=%g" -T "DATE=%y" -T "TRACKNUMBER=%n" -T "GENRE=%m" -T "COMMENT=%e" %s -o %d
TOC of the extracted CD
Track | Start | Length | Start sector | End sector
---------------------------------------------------------
1 | 0:00.00 | 3:47.40 | 0 | 17064
2 | 3:47.40 | 3:52.31 | 17065 | 34495
3 | 7:39.71 | 4:42.51 | 34496 | 55696
4 | 12:22.47 | 9:11.36 | 55697 | 97057
5 | 21:34.08 | 1:19.54 | 97058 | 103036
6 | 22:53.62 | 1:28.51 | 103037 | 109687
7 | 24:22.38 | 2:33.19 | 109688 | 121181
8 | 26:55.57 | 3:59.39 | 121182 | 139145
9 | 30:55.21 | 2:12.52 | 139146 | 149097
10 | 33:07.73 | 1:40.07 | 149098 | 156604
11 | 34:48.05 | 3:14.61 | 156605 | 171215
12 | 38:02.66 | 0:55.56 | 171216 | 175396
13 | 38:58.47 | 6:07.58 | 175397 | 202979
14 | 45:06.30 | 2:18.64 | 202980 | 213393
15 | 47:25.19 | 1:47.48 | 213394 | 221466
16 | 49:12.67 | 4:42.70 | 221467 | 242686
17 | 53:55.62 | 2:16.05 | 242687 | 252891
18 | 56:11.67 | 2:25.32 | 252892 | 263798
19 | 58:37.24 | 5:32.57 | 263799 | 288755
20 | 64:10.06 | 1:45.04 | 288756 | 296634
21 | 65:55.10 | 3:37.16 | 296635 | 312925
22 | 69:32.26 | 2:42.73 | 312926 | 325148
Range status and errors
Selected range
Filename F:\Music\Deller - Vol.5\Alfred Deller - English, French and Italian Madrigals. CD5.wav
Peak level 99.1 %
Range quality 100.0 %
Copy CRC F27BA629
Copy OK
No errors occurred
End of status reportCD6 EAC logExact Audio Copy V0.99 prebeta 5 from 4. May 2009
EAC extraction logfile from 3. June 2010, 0:57
The Deller Consort, Alfred Deller / English, French and Italian Madrigals. CD 6: Madrigals of Claudio Monteverdi and Don Carlo Gesualdo
Used drive : HL-DT-STDVDRAM GSA-4083N Adapter: 1 ID: 0
Read mode : Secure
Utilize accurate stream : Yes
Defeat audio cache : Yes
Make use of C2 pointers : No
Read offset correction : 667
Overread into Lead-In and Lead-Out : No
Fill up missing offset samples with silence : Yes
Delete leading and trailing silent blocks : No
Null samples used in CRC calculations : No
Used interface : Native Win32 interface for Win NT & 2000
Used output format : User Defined Encoder
Selected bitrate : 768 kBit/s
Quality : High
Add ID3 tag : No
Command line compressor : C:\Program Files\Exact Audio Copy\FLAC\FLAC.EXE
Additional command line options : -6 -V -T "ARTIST=%a" -T "TITLE=%t" -T "ALBUM=%g" -T "DATE=%y" -T "TRACKNUMBER=%n" -T "GENRE=%m" -T "COMMENT=%e" %s -o %d
TOC of the extracted CD
Track | Start | Length | Start sector | End sector
---------------------------------------------------------
1 | 0:00.00 | 2:46.18 | 0 | 12467
2 | 2:46.18 | 1:39.52 | 12468 | 19944
3 | 4:25.70 | 3:06.14 | 19945 | 33908
4 | 7:32.09 | 3:40.21 | 33909 | 50429
5 | 11:12.30 | 3:07.48 | 50430 | 64502
6 | 14:20.03 | 4:33.40 | 64503 | 85017
7 | 18:53.43 | 4:03.33 | 85018 | 103275
8 | 22:57.01 | 2:13.71 | 103276 | 113321
9 | 25:10.72 | 6:05.60 | 113322 | 140756
10 | 31:16.57 | 3:29.48 | 140757 | 156479
11 | 34:46.30 | 4:29.01 | 156480 | 176655
12 | 39:15.31 | 6:12.12 | 176656 | 204567
13 | 45:27.43 | 4:00.55 | 204568 | 222622
14 | 49:28.23 | 4:10.30 | 222623 | 241402
15 | 53:38.53 | 3:07.51 | 241403 | 255478
16 | 56:46.29 | 2:33.07 | 255479 | 266960
17 | 59:19.36 | 3:29.14 | 266961 | 282649
18 | 62:48.50 | 4:04.03 | 282650 | 300952
19 | 66:52.53 | 4:33.17 | 300953 | 321444
20 | 71:25.70 | 4:02.26 | 321445 | 339620
Range status and errors
Selected range
Filename F:\Music\Deller - Vol.5\Alfred Deller - English, French and Italian Madrigals. CD6.wav
Peak level 100.0 %
Range quality 100.0 %
Copy CRC A7C46CA6
Copy OK
No errors occurred
End of status report
[teatrix.ru].t10180.torrent 
Торрент: Зарегистрирован [ 2015-10-29 16:14 ] · 5A2E55627FA503B5CD4760F3D3EC9844415D87CE

Скачать .torrent

Скачать

42 KB

Статус: проверено
Скачан: 1 раз
Размер: 1.85 GB
terms.php



Быстрый ответ

Имя:

      
Для отправки сообщений необходимо включить JavaScript
Показать сообщения:    

Текущее время: 08-Дек 21:09

Часовой пояс: UTC + 3


Вы можете начинать темы
Вы можете отвечать на сообщения
Вы не можете редактировать свои сообщения
Вы не можете удалять свои сообщения
Вы не можете голосовать в опросах
Вы не можете прикреплять файлы к сообщениям
Вы можете скачивать файлы