Коля / Kolya / Kolja (Ян Сверак / Jan Sverák) [1996, Чехия, Драма, HDRip] MVO (Мосфильм ТВ Медиа) + Original Cze


 

[Цитировать]

Коля / Kolya / Kolja
Страна: Чехия
Жанр: Драма
Год выпуска: 1996
Продолжительность: 1:45:05
Перевод: Профессиональный (многоголосый закадровый) Мосфильм ТВ Медиа
Cубтитры: нет
Оригинальная аудиодорожка: чешский
Режиссер: Ян Сверак / Jan Sverák
В ролях: Зденек Сверак, Андрей Халимон, Либуше Шафранкова, Ондржей Ветхи, Стелла Зазворкова, Ладислав Смоляк, Сильвия Сувадова, Лилиан Малкина, Карел Гержманек, Петра Шпалкова...
Описание: Чешский музыкант, убежденный холостяк по меркантильным соображениям вступает в фиктивный брак с русской женщиной. Судьба наносит ему неожиданный удар. «Жена» исчезает и герой вынужден заботиться о ее пятилетнем сыне Коле.
Коля не понимает ни слова по-чешски, а его воспитатель не говорит по-русски. Их ждет трудный путь к пониманию, — путь, полный забавных недоразумений, веселых и грустных приключений, улыбок и любви…
Сэмпл: https://yadi.sk/i/yhaD9B_Dk5cxp
За оцифровку дорожки спасибо Fikaloid
Качество видео: HDRip
Формат видео: AVI
Видео: 720x400 (1.80:1), 23.976 fps, XviD build 50 ~1595 kbps avg, 0.23 bit/pixel
Аудио: 48 kHz, AC3 Dolby Digital, 2/0 (L,R) ch, ~192.00 kbps avg
Аудио 2: 48 kHz, AC3 Dolby Digital, 2/0 (L,R) ch, ~192.00 kbps avg

MediaInfo

General
Complete name : D:\Torrent\Коля\Коля.avi
Format : AVI
Format/Info : Audio Video Interleave
File size : 1.46 GiB
Duration : 1h 45mn
Overall bit rate : 1 994 Kbps
Director : derdevil13
Writing application : VirtualDubMod 1.5.10.2 (build 2540/release)
Video
ID : 0
Format : MPEG-4 Visual
Format profile : Advanced Simple@L5
Format settings, BVOP : 1
Format settings, QPel : No
Format settings, GMC : No warppoints
Format settings, Matrix : Default (MPEG)
Codec ID : XVID
Codec ID/Hint : XviD
Duration : 1h 45mn
Bit rate : 1 596 Kbps
Width : 720 pixels
Height : 400 pixels
Display aspect ratio : 16:9
Frame rate : 23.976 fps
Color space : YUV
Chroma subsampling : 4:2:0
Bit depth : 8 bits
Scan type : Progressive
Compression mode : Lossy
Bits/(Pixel*Frame) : 0.231
Stream size : 1.17 GiB (80%)
Writing library : XviD 1.2.1 (UTC 2008-12-04)
Audio #1
ID : 1
Format : AC-3
Format/Info : Audio Coding 3
Format profile : Dolby Digital
Mode extension : CM (complete main)
Format settings, Endianness : Big
Codec ID : 2000
Duration : 1h 45mn
Bit rate mode : Constant
Bit rate : 192 Kbps
Channel(s) : 2 channels
Channel positions : Front: L R
Sampling rate : 48.0 KHz
Compression mode : Lossy
Stream size : 144 MiB (10%)
Alignment : Split accross interleaves
Interleave, duration : 42 ms (1.00 video frame)
Interleave, preload duratio : 500 ms
Audio #2
ID : 2
Format : AC-3
Format/Info : Audio Coding 3
Format profile : Dolby Digital
Mode extension : CM (complete main)
Format settings, Endianness : Big
Codec ID : 2000
Duration : 1h 45mn
Bit rate mode : Constant
Bit rate : 192 Kbps
Channel(s) : 2 channels
Channel positions : Front: L R
Sampling rate : 48.0 KHz
Compression mode : Lossy
Stream size : 144 MiB (10%)
Alignment : Split accross interleaves
Interleave, duration : 42 ms (1.00 video frame)
Interleave, preload duratio : 500 ms

Скриншоты




Показать сообщения:    

Текущее время: 03-Дек 20:46

Часовой пояс: UTC + 3


Вы не можете начинать темы
Вы не можете отвечать на сообщения
Вы не можете редактировать свои сообщения
Вы не можете удалять свои сообщения
Вы не можете голосовать в опросах
Вы не можете прикреплять файлы к сообщениям
Вы не можете скачивать файлы