Загадочный мужчина (Сергей Овчинников) [2012 г., комедия, SATRip] Сибирский Театр Сатиры, г. Новосибирск


 

[Цитировать]

Загадочный мужчина Название театра: Сибирский Театр Сатиры, г. Новосибирск.
Год выпуска: 2012.
Жанр: комедия.
Продолжительность: 01:25:02.
Режиссер: Сергей Овчинников.
В ролях:
Светлана Петрова, Дмитрий Петров, Ольга Сизикова, Мария Авхимович, Алексей Авхимович, Антон Кряквин, Василий Тюнин, Алексей Шмитд, Евгения Мигурская.
О спектакле:
Сибирский Театр Сатиры представляет комедию "Загадочный мужчина"!!! Житейские истории о мужчинах и их окружении. В каждой из этих историй есть неожиданный момент, который удивляет и держит интригу. Пьеса интересна людьми, которые ее населяют. Они не выдуманы, они из жизни..
Дополнительная информация:
Страна: Россия .

О спектакле.

Еще постер

Релиз
Рип sharky.

Качество видео:...SATRip
Формат:.................AVI
Видео:..704x400 (1.76:1), 25 fps, DivX Codec 4.x ~1695 kbps avg, 0.24 bit/pixel
Аудио:..44.100 kHz, MPEG Layer 3, 2 ch, ~128.00 kbps avg

Отчет Media Info

General
Complete name : Zagadochyj.muzhchina_Sibirskij.teatr.satiry.2012.DivX.WEB-DLRip.fenixclub.avi
Format : AVI
Format/Info : Audio Video Interleave
File size : 1.09 GiB
Duration : 1h 25mn
Overall bit rate : 1 834 Kbps
Video
ID : 0
Format : MPEG-4 Visual
Format settings, BVOP : 1
Format settings, QPel : No
Format settings, GMC : No warppoints
Format settings, Matrix : Default (H.263)
Codec ID : DX50
Codec ID/Hint : DivX 5
Duration : 1h 25mn
Bit rate : 1 696 Kbps
Width : 704 pixels
Height : 400 pixels
Display aspect ratio : 16:9
Frame rate : 25.000 fps
Color space : YUV
Chroma subsampling : 4:2:0
Bit depth : 8 bits
Scan type : Progressive
Compression mode : Lossy
Bits/(Pixel*Frame) : 0.241
Stream size : 1.01 GiB (92%)
Title : Video
Writing library : DivX 3013
Audio
ID : 1
Format : MPEG Audio
Format version : Version 1
Format profile : Layer 3
Codec ID : 55
Codec ID/Hint : MP3
Duration : 1h 25mn
Bit rate mode : Constant
Bit rate : 128 Kbps
Channel(s) : 2 channels
Sampling rate : 44.1 KHz
Compression mode : Lossy
Stream size : 77.9 MiB (7%)
Alignment : Split accross interleaves
Interleave, duration : 40 ms (1.00 video frame)
Interleave, preload duratio : 500 ms
Title : Audio

Скриншоты


Альтернативный хост





Показать сообщения:    

Текущее время: 09-Дек 14:41

Часовой пояс: UTC + 3


Вы не можете начинать темы
Вы не можете отвечать на сообщения
Вы не можете редактировать свои сообщения
Вы не можете удалять свои сообщения
Вы не можете голосовать в опросах
Вы не можете прикреплять файлы к сообщениям
Вы не можете скачивать файлы