(Оркестровая/Балет) Петр Чайковский - Спящая Красавица (Светланов, 1980) - 2001, FLAC (image+.cue), lossless


 

[Цитировать]

Петр Чайковский - Спящая Красавица
Жанр: Музыка из Балета
Год выпуска диска: 2001
Год записи: 1980
Производитель диска: Россия
Тип рипа: image+.cue
Битрейт аудио: lossless
Продолжительность: 2:49:45
Источник рипа: оригинальные CD's из моей личной коллекции
Государственный Академический Симфонический Оркестр СССР
Дирижер Евгений Светланов

Трэклист

CD1:
1. Интродукция / Пролог
2. Марш
3. Сцена с танцами / Pas de six
4. Introduction
5. Adagio
6. Фея искренности
7. Фея цветущих колосьев
8. Фея, рассыпающая хлебные крошки
9. Фея - щебечущая канарейка
10. Фея пылких сильных страстей
11. Фея Сирени
12. Кода
13. Финал
14. Сцена
15. Вальс
16. Сцена / Pas d’action
17. Adagio
18. Танец фрейлин и пажей
19. Вариация Авроры
20. Кода
21. Финал
CD2:
1. Антракт и сцена
2. Жмурки
3. Сцена
4. Танец герцогинь
5. Танец баронесс
6. Танец графинь
7. Танец маркиз
8. Фарандола: Сцена
9. Фарандола: Танец
10. Сцена
11. Pas d’action
12. Вариация Авроры
13. Кода
14. Сцена
15. Панорама
16. Антракт
17. Симфонический антракт ("Сон") и сцена
18. Финал
CD3:
1. Марш
2. Полонез
3. Pas de quatre
4. Фея золота
5. Фея серебра
6. Фея сапфиров
7. Фея бриллиантов
8. Кода
9. Pas de caractere (Кот в сапогах и Белая кошечка)
10. Pas de quatre
11. Золушка и принц Фортюне
12. Синяя птица и принцесса Флорина
13. Кода
14. Pas de caractere: Красная Шапочка и Волк
15. Pas de caractere: Золушка и принц Фортюне
16. Pas berrichon (Мальчик-с-пальчик, его братья и Людоед)
17. Кода / Pas de deux (Аврора и принц Дезире)
18. Интродукция
19. Выход
20. Adagio
21. Принц Дезире
22. Аврора
23. Кода
24. Сарабанда
25. Финал
26. Апофеоз

log 1

Exact Audio Copy V1.0 beta 2 from 29. April 2011
EAC extraction logfile from 28. July 2011, 14:59
Чайковский / Спящая красавица
Used drive : Optiarc DVD RW AD-7200A Adapter: 0 ID: 0
Read mode : Secure
Utilize accurate stream : Yes
Defeat audio cache : Yes
Make use of C2 pointers : No
Read offset correction : 48
Overread into Lead-In and Lead-Out : No
Fill up missing offset samples with silence : Yes
Delete leading and trailing silent blocks : No
Null samples used in CRC calculations : Yes
Used interface : Native Win32 interface for Win NT & 2000
Used output format : Internal WAV Routines
Sample format : 44.100 Hz; 16 Bit; Stereo
TOC of the extracted CD
Track | Start | Length | Start sector | End sector
---------------------------------------------------------
1 | 0:00.00 | 3:12.07 | 0 | 14406
2 | 3:12.07 | 4:53.35 | 14407 | 36416
3 | 8:05.42 | 4:35.35 | 36417 | 57076
4 | 12:41.02 | 0:49.65 | 57077 | 60816
5 | 13:30.67 | 4:46.20 | 60817 | 82286
6 | 18:17.12 | 1:14.03 | 82287 | 87839
7 | 19:31.15 | 0:34.37 | 87840 | 90426
8 | 20:05.52 | 1:00.65 | 90427 | 94991
9 | 21:06.42 | 0:33.28 | 94992 | 97494
10 | 21:39.70 | 1:01.42 | 97495 | 102111
11 | 22:41.37 | 1:24.38 | 102112 | 108449
12 | 24:06.00 | 1:22.27 | 108450 | 114626
13 | 25:28.27 | 8:59.40 | 114627 | 155091
14 | 34:27.67 | 7:38.40 | 155092 | 189481
15 | 42:06.32 | 4:37.68 | 189482 | 210324
16 | 46:44.25 | 1:48.37 | 210325 | 218461
17 | 48:32.62 | 6:44.28 | 218462 | 248789
18 | 55:17.15 | 1:57.72 | 248790 | 257636
19 | 57:15.12 | 4:13.63 | 257637 | 276674
20 | 61:29.00 | 2:20.22 | 276675 | 287196
21 | 63:49.22 | 7:34.38 | 287197 | 321284
Range status and errors
Selected range
Filename C:\Чайковский - Спящая красавица (Светланов)\Disc 1\Чайковский - Спящая красавица.wav
Peak level 94.3 %
Extraction speed 4.4 X
Range quality 99.9 %
Copy CRC A2DA1C8F
Copy OK
No errors occurred
End of status repor

log 2

Exact Audio Copy V1.0 beta 2 from 29. April 2011
EAC extraction logfile from 28. July 2011, 17:52
Чайковский / Спящая красавица
Used drive : Optiarc DVD RW AD-7200A Adapter: 0 ID: 0
Read mode : Secure
Utilize accurate stream : Yes
Defeat audio cache : Yes
Make use of C2 pointers : No
Read offset correction : 48
Overread into Lead-In and Lead-Out : No
Fill up missing offset samples with silence : Yes
Delete leading and trailing silent blocks : No
Null samples used in CRC calculations : Yes
Used interface : Native Win32 interface for Win NT & 2000
Used output format : Internal WAV Routines
Sample format : 44.100 Hz; 16 Bit; Stereo
TOC of the extracted CD
Track | Start | Length | Start sector | End sector
---------------------------------------------------------
1 | 0:00.00 | 3:06.67 | 0 | 14016
2 | 3:06.67 | 1:28.50 | 14017 | 20666
3 | 4:35.42 | 1:07.58 | 20667 | 25749
4 | 5:43.25 | 1:05.57 | 25750 | 30681
5 | 6:49.07 | 0:41.70 | 30682 | 33826
6 | 7:31.02 | 0:57.10 | 33827 | 38111
7 | 8:28.12 | 0:43.38 | 38112 | 41374
8 | 9:11.50 | 0:16.22 | 41375 | 42596
9 | 9:27.72 | 1:14.00 | 42597 | 48146
10 | 10:41.72 | 6:16.73 | 48147 | 76419
11 | 16:58.70 | 5:53.65 | 76420 | 102959
12 | 22:52.60 | 2:02.10 | 102960 | 112119
13 | 24:54.70 | 1:20.05 | 112120 | 118124
14 | 26:15.00 | 0:41.52 | 118125 | 121251
15 | 26:56.52 | 4:24.65 | 121252 | 141116
16 | 31:21.42 | 6:46.67 | 141117 | 171633
17 | 38:08.34 | 7:46.11 | 171634 | 206594
18 | 45:54.45 | 2:14.45 | 206595 | 216689
Range status and errors
Selected range
Filename C:\Чайковский - Спящая красавица (Светланов)\Disc 2\Чайковский - Спящая красавица.wav
Peak level 79.3 %
Extraction speed 3.7 X
Range quality 100.0 %
Copy CRC 222D280D
Copy OK
No errors occurred
End of status report

log 3

Exact Audio Copy V1.0 beta 2 from 29. April 2011
EAC extraction logfile from 28. July 2011, 18:10
Чайковский / Спящая красавица
Used drive : Optiarc DVD RW AD-7200A Adapter: 0 ID: 0
Read mode : Secure
Utilize accurate stream : Yes
Defeat audio cache : Yes
Make use of C2 pointers : No
Read offset correction : 48
Overread into Lead-In and Lead-Out : No
Fill up missing offset samples with silence : Yes
Delete leading and trailing silent blocks : No
Null samples used in CRC calculations : Yes
Used interface : Native Win32 interface for Win NT & 2000
Used output format : Internal WAV Routines
Sample format : 44.100 Hz; 16 Bit; Stereo
TOC of the extracted CD
Track | Start | Length | Start sector | End sector
---------------------------------------------------------
1 | 0:00.00 | 3:08.15 | 0 | 14114
2 | 3:08.15 | 4:06.35 | 14115 | 32599
3 | 7:14.50 | 2:05.52 | 32600 | 42026
4 | 9:20.27 | 1:14.55 | 42027 | 47631
5 | 10:35.07 | 0:53.13 | 47632 | 51619
6 | 11:28.20 | 0:42.35 | 51620 | 54804
7 | 12:10.55 | 0:44.27 | 54805 | 58131
8 | 12:55.07 | 0:42.05 | 58132 | 61286
9 | 13:37.12 | 2:16.65 | 61287 | 71551
10 | 15:54.02 | 2:48.38 | 71552 | 84189
11 | 18:42.40 | 1:00.17 | 84190 | 88706
12 | 19:42.57 | 0:52.45 | 88707 | 92651
13 | 20:35.27 | 1:21.18 | 92652 | 98744
14 | 21:56.45 | 1:25.57 | 98745 | 105176
15 | 23:22.27 | 2:49.05 | 105177 | 117856
16 | 26:11.32 | 1:05.05 | 117857 | 122736
17 | 27:16.37 | 0:14.45 | 122737 | 123831
18 | 27:31.07 | 0:11.28 | 123832 | 124684
19 | 27:42.35 | 1:34.20 | 124685 | 131754
20 | 29:16.55 | 5:11.27 | 131755 | 155106
21 | 34:28.07 | 0:55.03 | 155107 | 159234
22 | 35:23.10 | 2:17.07 | 159235 | 169516
23 | 37:40.17 | 1:17.60 | 169517 | 175351
24 | 38:58.02 | 2:58.40 | 175352 | 188741
25 | 41:56.42 | 5:52.23 | 188742 | 215164
26 | 47:48.65 | 2:22.52 | 215165 | 225866
Range status and errors
Selected range
Filename C:\Чайковский - Спящая красавица (Светланов)\Disc 3\Чайковский - Спящая красавица.wav
Peak level 83.4 %
Extraction speed 3.8 X
Range quality 99.9 %
Copy CRC F9B9EABD
Copy OK
No errors occurred
End of status report

[Цитировать]

CUE с тегами:

CD1

REM GENRE Symphony
REM DATE 1980
REM DISCID 2A10BB15
REM COMMENT "ExactAudioCopy v0.99pb4"
PERFORMER "Tchaikovsky"
TITLE "The Sleeping Beauty (CD 1)"
FILE "Tchaikovsky - The Sleeping Beauty.tak" WAVE
TRACK 01 AUDIO
TITLE "Интродукция / Пролог"
PERFORMER "Tchaikovsky"
INDEX 01 00:00:00
TRACK 02 AUDIO
TITLE "Марш"
PERFORMER "Tchaikovsky"
INDEX 01 03:12:07
TRACK 03 AUDIO
TITLE "Сцена с танцами / Pas de six"
PERFORMER "Tchaikovsky"
INDEX 01 08:05:42
TRACK 04 AUDIO
TITLE "Introduction"
PERFORMER "Tchaikovsky"
INDEX 01 12:41:02
TRACK 05 AUDIO
TITLE "Adagio"
PERFORMER "Tchaikovsky"
INDEX 01 13:30:67
TRACK 06 AUDIO
TITLE "Фея искренности"
PERFORMER "Tchaikovsky"
INDEX 01 18:17:12
TRACK 07 AUDIO
TITLE "Фея цветущих колосьев"
PERFORMER "Tchaikovsky"
INDEX 01 19:31:15
TRACK 08 AUDIO
TITLE "Фея, рассыпающая хлебные крошки"
PERFORMER "Tchaikovsky"
INDEX 01 20:05:52
TRACK 09 AUDIO
TITLE "Фея - щебечущая канарейка"
PERFORMER "Tchaikovsky"
INDEX 01 21:06:42
TRACK 10 AUDIO
TITLE "Фея пылких сильных страстей"
PERFORMER "Tchaikovsky"
INDEX 01 21:39:70
TRACK 11 AUDIO
TITLE "Фея Сирени"
PERFORMER "Tchaikovsky"
INDEX 01 22:41:37
TRACK 12 AUDIO
TITLE "Кода"
PERFORMER "Tchaikovsky"
INDEX 01 24:06:00
TRACK 13 AUDIO
TITLE "Финал"
PERFORMER "Tchaikovsky"
INDEX 01 25:28:27
TRACK 14 AUDIO
TITLE "Сцена"
PERFORMER "Tchaikovsky"
INDEX 01 34:27:67
TRACK 15 AUDIO
TITLE "Вальс"
PERFORMER "Tchaikovsky"
INDEX 01 42:06:32
TRACK 16 AUDIO
TITLE "Сцена / Pas d action"
PERFORMER "Tchaikovsky"
INDEX 01 46:44:25
TRACK 17 AUDIO
TITLE "Adagio"
PERFORMER "Tchaikovsky"
INDEX 01 48:32:62
TRACK 18 AUDIO
TITLE "Танец фрейлин и пажей"
PERFORMER "Tchaikovsky"
INDEX 01 55:17:15
TRACK 19 AUDIO
TITLE "Вариация Авроры"
PERFORMER "Tchaikovsky"
INDEX 01 57:15:12
TRACK 20 AUDIO
TITLE "Кода"
PERFORMER "Tchaikovsky"
INDEX 01 61:29:00
TRACK 21 AUDIO
TITLE "Финал"
PERFORMER "Tchaikovsky"
INDEX 01 63:49:22

CD2

REM GENRE Symphony
REM DATE 1980
REM DISCID F40B4912
REM COMMENT "ExactAudioCopy v0.99pb4"
PERFORMER "Tchaikovsky"
TITLE "The Sleeping Beauty (CD 2)"
FILE "Tchaikovsky - The Sleeping Beauty.tak" WAVE
TRACK 01 AUDIO
TITLE "Антракт и сцена"
PERFORMER "Tchaikovsky"
INDEX 01 00:00:00
TRACK 02 AUDIO
TITLE "Жмурки"
PERFORMER "Tchaikovsky"
INDEX 01 03:06:67
TRACK 03 AUDIO
TITLE "Сцена"
PERFORMER "Tchaikovsky"
INDEX 01 04:35:42
TRACK 04 AUDIO
TITLE "Танец герцогинь"
PERFORMER "Tchaikovsky"
INDEX 01 05:43:25
TRACK 05 AUDIO
TITLE "Танец баронесс"
PERFORMER "Tchaikovsky"
INDEX 01 06:49:07
TRACK 06 AUDIO
TITLE "Танец графинь"
PERFORMER "Tchaikovsky"
INDEX 01 07:31:02
TRACK 07 AUDIO
TITLE "Танец маркиз"
PERFORMER "Tchaikovsky"
INDEX 01 08:28:12
TRACK 08 AUDIO
TITLE "Фарандола: Сцена"
PERFORMER "Tchaikovsky"
INDEX 01 09:11:50
TRACK 09 AUDIO
TITLE "Фарандола: Танец"
PERFORMER "Tchaikovsky"
INDEX 01 09:27:72
TRACK 10 AUDIO
TITLE "Сцена"
PERFORMER "Tchaikovsky"
INDEX 01 10:41:72
TRACK 11 AUDIO
TITLE "Pas d action"
PERFORMER "Tchaikovsky"
INDEX 01 16:58:70
TRACK 12 AUDIO
TITLE "Вариация Авроры"
PERFORMER "Tchaikovsky"
INDEX 01 22:52:60
TRACK 13 AUDIO
TITLE "Кода"
PERFORMER "Tchaikovsky"
INDEX 01 24:54:70
TRACK 14 AUDIO
TITLE "Сцена"
PERFORMER "Tchaikovsky"
INDEX 01 26:15:00
TRACK 15 AUDIO
TITLE "Панорама"
PERFORMER "Tchaikovsky"
INDEX 01 26:56:52
TRACK 16 AUDIO
TITLE "Антракт"
PERFORMER "Tchaikovsky"
INDEX 01 31:21:42
TRACK 17 AUDIO
TITLE "Симфонический антракт (Сон) и сцена"
PERFORMER "Tchaikovsky"
INDEX 01 38:08:34
TRACK 18 AUDIO
TITLE "Финал"
PERFORMER "Tchaikovsky"
INDEX 01 45:54:45

CD3

REM DISCID 660BC31A
REM COMMENT ExactAudioCopy v0.99pb4
PERFORMER "Tchaikovsky"
TITLE "The Sleeping Beauty (CD 3)"
FILE "Unknown Artist - Unknown Title.tak" WAVE
TRACK 01 AUDIO
TITLE "Марш"
INDEX 01 00:00:00
TRACK 02 AUDIO
TITLE "Полонез"
INDEX 01 03:08:15
TRACK 03 AUDIO
TITLE "Pas de quatre"
INDEX 01 07:14:50
TRACK 04 AUDIO
TITLE "Фея золота"
INDEX 01 09:20:27
TRACK 05 AUDIO
TITLE "Фея серебра"
INDEX 01 10:35:07
TRACK 06 AUDIO
TITLE "Фея сапфиров"
INDEX 01 11:28:20
TRACK 07 AUDIO
TITLE "Фея бриллиантов"
INDEX 01 12:10:55
TRACK 08 AUDIO
TITLE "Кода"
INDEX 01 12:55:07
TRACK 09 AUDIO
TITLE "Pas de caractere (Кот в сапогах и Белая кошечка)"
INDEX 01 13:37:12
TRACK 10 AUDIO
TITLE "Pas de quatre"
INDEX 01 15:54:02
TRACK 11 AUDIO
TITLE "Золушка и принц Фортюне"
INDEX 01 18:42:40
TRACK 12 AUDIO
TITLE "Синяя птица и принцесса Флорина"
INDEX 01 19:42:57
TRACK 13 AUDIO
TITLE "Кода"
INDEX 01 20:35:27
TRACK 14 AUDIO
TITLE "Pas de caractere: Красная Шапочка и Волк"
INDEX 01 21:56:45
TRACK 15 AUDIO
TITLE "Pas de caractere: Золушка и принц Фортюне"
INDEX 01 23:22:27
TRACK 16 AUDIO
TITLE "Pas berrichon (Мальчик-с-пальчик, его братья и Людоед)"
INDEX 01 26:11:32
TRACK 17 AUDIO
TITLE "Кода / Pas de deux (Аврора и принц Дезире)"
INDEX 01 27:16:37
TRACK 18 AUDIO
TITLE "Интродукция"
INDEX 01 27:31:07
TRACK 19 AUDIO
TITLE "Выход"
INDEX 01 27:42:35
TRACK 20 AUDIO
TITLE "Adagio"
INDEX 01 29:16:55
TRACK 21 AUDIO
TITLE "Принц Дезире"
INDEX 01 34:28:07
TRACK 22 AUDIO
TITLE "Аврора"
INDEX 01 35:23:10
TRACK 23 AUDIO
TITLE "Кода"
INDEX 01 37:40:17
TRACK 24 AUDIO
TITLE "Сарабанда"
INDEX 01 38:58:02
TRACK 25 AUDIO
TITLE "Финал"
INDEX 01 41:56:42
TRACK 26 AUDIO
TITLE "Апофеоз"
INDEX 01 47:48:65


Показать сообщения:    

Текущее время: 08-Дек 09:04

Часовой пояс: UTC + 3


Вы не можете начинать темы
Вы не можете отвечать на сообщения
Вы не можете редактировать свои сообщения
Вы не можете удалять свои сообщения
Вы не можете голосовать в опросах
Вы не можете прикреплять файлы к сообщениям
Вы не можете скачивать файлы