Цю Цзю обращается в суд / The Story of Qiu Ju / Qiu Ju da guan si (Чжан Имоу / Yimou Zhang) [1992, Гонконг, Китай, драма, HDRip] MVO


 

[Цитировать]

Цю Цзю обращается в суд / The Story of Qiu Ju / Qiu Ju da guan si
Страна: Гонконг, Китай
Жанр: драма
Год выпуска: 1992
Продолжительность: 01:40:16
Перевод: Профессиональный (многоголосый закадровый) - по заказу Kino Polska на производственно-технической базе Студии "Акцент"
Cубтитры: нет

Режиссер: Чжан Имоу / Yimou Zhang
В ролях: Гун Ли, Пейки Лиу, Лиючюн Янг, Зи Лин, Квешенг Лей, Дзижун Дже, Ванквинг Жу, Луовен Чуи, Хукин Янг, Джинфа Ванг, Зи Лин, Джун Е
Описание: Первый эксперимент Имоу на ниве неореализма. Далеко не самый удачный эксперимент, но зато самому режиссеру он до чертиков понравился. Потому что пстрый, разноцветный, с толпой непрофессиональных актеров и с беременной Гон Ли в кадре. Гон Ли играет в фильме простую крестьянку, которая решает заступиться за своего мужа, побитого местным старостой. Забыв о домашних заботах, она отправляется в город, где решет пройти по всем ступеням бюрократической машины.
Награды:
МКФ в Венеции — "Золотой лев".
Синдикат французских кинокритиков — лучший иностранный фильм.
Национальная ассоциация кинокритиков, США — лучший иностранный фильм.
МКФ в Ванкувере — приз за самый популярный фильм.
Golden Rooster Awards — лучший фильм, лучшая актриса (Гун Ли).
КФ в Чаньчуне — "Золотой олень" (1992), "Золотой олень" за "выдающийся фильм в жанре "сельской драмы" (2008).
Hundred Flowers Awards — лучший фильм..

Качество видео: HDRip - DVB-AVC
Формат видео: AVI
Видео: 656x368 (1.78:1), 23.976 fps, XviD build 73 ~899 kbps avg, 0.16 bit/pixel
Аудио: 48 kHz, MPEG Layer 3, 2 ch, ~128.00 kbps avg

MediaInfo

Общее
Полное имя : H:\The.Story.of.Qiu.Ju.1992.hdrip_[745]_[teko].avi
Формат : AVI
Формат/Информация : Audio Video Interleave
Размер файла : 743 Мбайт
Продолжительность : 1 ч. 40 м.
Общий поток : 1037 Кбит/сек
Программа кодирования : VirtualDubMod 1.5.10.3 | www.virtualdub-fr.org || (build 2550/release)
Библиотека кодирования : VirtualDubMod build 2550/release
Видео
Идентификатор : 0
Формат : MPEG-4 Visual
Профиль формата : Advanced Simple@L5
Параметр BVOP формата : 2
Параметр QPel формата : Нет
Параметр GMC формата : Без точки перехода
Параметр матрицы формата : Выборочная
Идентификатор кодека : XVID
Идентификатор кодека/Подсказка : XviD
Продолжительность : 1 ч. 40 м.
Битрейт : 899 Кбит/сек
Ширина : 656 пикселей
Высота : 368 пикселей
Соотношение сторон : 16:9
Частота кадров : 23,976 кадра/сек
Цветовое пространство : YUV
Субдискретизация насыщенности : 4:2:0
Битовая глубина : 8 бит
Тип развёртки : Прогрессивная
Метод сжатия : С потерями
Бит/(Пиксели*Кадры) : 0.155
Размер потока : 645 Мбайт (87%)
Библиотека кодирования : XviD 73
Аудио
Идентификатор : 1
Формат : MPEG Audio
Версия формата : Version 1
Профиль формата : Layer 3
Режим : Joint stereo
Идентификатор кодека : 55
Идентификатор кодека/Подсказка : MP3
Продолжительность : 1 ч. 40 м.
Вид битрейта : Постоянный
Битрейт : 128 Кбит/сек
Каналы : 2 канала
Частота : 48,0 КГц
Метод сжатия : С потерями
Размер потока : 91,8 Мбайт (12%)
Выравнивание : Соединение по промежуткам
Продолжительность промежутка : 42 мс. (1,00 видеокадр)
Время предзагрузки промежутка : 504 мс.
Библиотека кодирования : LAME3.90.3



Показать сообщения:    

Текущее время: 08-Дек 19:06

Часовой пояс: UTC + 3


Вы не можете начинать темы
Вы не можете отвечать на сообщения
Вы не можете редактировать свои сообщения
Вы не можете удалять свои сообщения
Вы не можете голосовать в опросах
Вы не можете прикреплять файлы к сообщениям
Вы не можете скачивать файлы