Счастливый принц. Оскар Уайльд [2014 г., литературные чтения, SATRip] Государственный музей изобразительных искусств имени А.С. Пушкина


 

[Цитировать]

Счастливый принц. Оскар Уайльд Государственный музей изобразительных искусств имени А.С. Пушкина.
Год выпуска: 2014.
Жанр: литературные чтения.
Продолжительность: 00:20:09.
Исполнительница: Ольга Ломоносова.
Описание:
Среди гостей – актриса Ольга Ломоносова.
Один из ее любимых авторов – Оскар Уайльд.
Для чтения выбрала отрывок из его сказки "Счастливый принц".
"Я очень люблю его сказки, – говорит актриса, – Они очень тонкие, в них есть и ирония, есть и невероятная искренность, и при этом они, как притчи".

Дополнительная информация:
Страна: Россия .
Автор: Оскар Уайльд.
30 ноября 2014 года.
Акция "Читаем вместе английскую литературу" в Государственном музее изобразительных искусств имени А.С. Пушкина.
Релиз

Качество видео:...SATRip
Формат:.................AVI
Видео:..720x400 (1.80:1), 25 fps, XviD MPEG-4 ~1470 kbps avg, 0.20 bit/pixel
Аудио:..44.100 kHz, MPEG Layer 3, 2 ch, ~128.00 kbps avg

Отчет MI

Общее
Полное имя : Schastlivyj.prinz_GMII.im.Pushkina.2014.XviD.SATRip.fenixclub.avi
Format : AVI
Format/Info : Audio Video Interleave
File size : 232 MiB
Duration : 20mn 9s
Overall bit rate : 1 608 Kbps
Writing application : VirtualDubModRus 1.5.10.2 (build 2542/release)
Writing library : VirtualDubMod build 2542/release
Video
ID : 0
Format : MPEG-4 Visual
Format profile : Advanced Simple@L5
Format settings, BVOP : 2
Format settings, QPel : No
Format settings, GMC : No warppoints
Format settings, Matrix : Default (MPEG)
Codec ID : XVID
Codec ID/Hint : XviD
Duration : 20mn 9s
Bit rate : 1 470 Kbps
Width : 720 pixels
Height : 400 pixels
Display aspect ratio : 16:9
Frame rate : 25.000 fps
Color space : YUV
Chroma subsampling : 4:2:0
Bit depth : 8 bits
Scan type : Progressive
Compression mode : Lossy
Bits/(Pixel*Frame) : 0.204
Stream size : 212 MiB (91%)
Writing library : XviD 73
Audio
ID : 1
Format : MPEG Audio
Format version : Version 1
Format profile : Layer 3
Codec ID : 55
Codec ID/Hint : MP3
Duration : 20mn 9s
Bit rate mode : Constant
Bit rate : 128 Kbps
Channel(s) : 2 channels
Sampling rate : 44.1 KHz
Compression mode : Lossy
Stream size : 18.5 MiB (8%)
Alignment : Split accross interleaves
Interleave, duration : 40 ms (1.00 video frame)
Interleave, preload duratio : 500 ms
Writing library : LAME3.99r
Encoding settings : -m s -V 4 -q 2 -lowpass 17 -b 128

Скриншоты

Альтернативный хост




Показать сообщения:    

Текущее время: 10-Дек 15:48

Часовой пояс: UTC + 3


Вы не можете начинать темы
Вы не можете отвечать на сообщения
Вы не можете редактировать свои сообщения
Вы не можете удалять свои сообщения
Вы не можете голосовать в опросах
Вы не можете прикреплять файлы к сообщениям
Вы не можете скачивать файлы