(Classical) Franz Schubert - Symphonies Nos. 3, 4 & 5 - Swedish Chamber Orchestra, Thomas Dausgaard - 2013, FLAC (image+.cue) lossless


 

[Цитировать]

Franz Schubert - Symphonies Nos. 3, 4 & 5 - Swedish Chamber Orchestra, Thomas Dausgaard
Жанр: Classical
Страна-производитель диска: Sweden
Год издания диска: 2013
Издатель (лейбл): BIS
Номер по каталогу: BIS-SACD-1786
Дата записи: 2009-2011
Аудиокодек: FLAC
Тип рипа: image+.cue
Битрейт аудио: lossless
Продолжительность: 80:58
Источник: собственный рип
Наличие сканов в содержимом раздачи: да
Треклист:
Franz Schubert (1797–1828)
[1]-[4] Symphony No. 3 in D major, D 200 (1815)
[5]-[8] Symphony No. 4 in C minor, ‘Tragic’, D 417 (1816)
[9]-[12] Symphony No. 5 in B flat major, D 485 (1816)
Исполнители:
Swedish Chamber Orchestra, Örebro
Thomas Dausgaard
conductor

Лог создания рипа

Exact Audio Copy V1.0 beta 3 from 29. August 2011
EAC extraction logfile from 14. March 2015, 21:24
Swedish Chamber Orchestra, Thomas Dausgaard / Schubert - Symphonies Nos. 3, 4 & 5
Used drive : HL-DT-STDVDRAM GU70N Adapter: 0 ID: 0
Read mode : SecureUtilize accurate stream : YesDefeat audio cache : YesMake use of C2 pointers : No
Read offset correction : 48Overread into Lead-In and Lead-Out : NoFill up missing offset samples with silence : YesDelete leading and trailing silent blocks : NoNull samples used in CRC calculations : YesUsed interface : Native Win32 interface for Win NT & 2000
Used output format : User Defined EncoderSelected bitrate : 128 kBit/sQuality : HighAdd ID3 tag : NoCommand line compressor : C:\Program Files (x86)\Exact Audio Copy\Flac\flac.exeAdditional command line options : -V -8 -T "Date=%year%" -T "Genre=%genre%" %source%
TOC of the extracted CD
Track | Start | Length | Start sector | End sector --------------------------------------------------------- 1 | 0:00.00 | 8:36.69 | 0 | 38768 2 | 8:36.69 | 4:11.51 | 38769 | 57644 3 | 12:48.45 | 3:49.18 | 57645 | 74837 4 | 16:37.63 | 6:38.74 | 74838 | 104761 5 | 23:16.62 | 8:50.05 | 104762 | 144516 6 | 32:06.67 | 7:31.30 | 144517 | 178371 7 | 39:38.22 | 2:51.27 | 178372 | 191223 8 | 42:29.49 | 10:26.47 | 191224 | 238220 9 | 52:56.21 | 6:27.10 | 238221 | 267255 10 | 59:23.31 | 8:54.58 | 267256 | 307363 11 | 68:18.14 | 4:28.67 | 307364 | 327530 12 | 72:47.06 | 8:11.38 | 327531 | 364393
Range status and errors
Selected range
Filename C:\temp\BIS-SACD-1786 - Schubert - Symphonies Nos. 3, 4 & 5\Schubert - Symphonies Nos. 3, 4 & 5.wav
Peak level 99.9 % Extraction speed 2.3 X Range quality 100.0 % Test CRC A2DA44CF Copy CRC A2DA44CF Copy OK
No errors occurred
AccurateRip summary
Track 1 accurately ripped (confidence 5) [87554F2C] (AR v2)Track 2 accurately ripped (confidence 5) [9E0ABCDB] (AR v2)Track 3 accurately ripped (confidence 5) [BFF9952D] (AR v2)Track 4 accurately ripped (confidence 5) [38F6BF01] (AR v2)Track 5 accurately ripped (confidence 5) [935882D5] (AR v2)Track 6 accurately ripped (confidence 5) [5F2212AA] (AR v2)Track 7 accurately ripped (confidence 5) [1A57FBA3] (AR v2)Track 8 accurately ripped (confidence 5) [401D8FC3] (AR v2)Track 9 accurately ripped (confidence 5) [AA21F920] (AR v2)Track 10 accurately ripped (confidence 5) [D524E25C] (AR v2)Track 11 accurately ripped (confidence 5) [6C822BFF] (AR v2)Track 12 accurately ripped (confidence 5) [9C3A1B6E] (AR v2)
All tracks accurately ripped
End of status report
==== Log checksum CCF06C3B1908AA91DFD6BE5854FF06722C8188F789704D7E3C50EB1A08D4AF34 ====



Показать сообщения:    

Текущее время: 10-Дек 00:16

Часовой пояс: UTC + 3


Вы не можете начинать темы
Вы не можете отвечать на сообщения
Вы не можете редактировать свои сообщения
Вы не можете удалять свои сообщения
Вы не можете голосовать в опросах
Вы не можете прикреплять файлы к сообщениям
Вы не можете скачивать файлы