Ходули / Los Zancos (Карлос Саура / Carlos Saura) [1984, Испания, драма, DVDRip] + Sub Rus, Eng + Original Spa


Статистика раздачи [Обновить пиров]
Размер:  1.45 GB   |    Зарегистрирован:  1 год 1 месяц   |    Скачан:  0 раз

Полного источника не было: Никогда

Личеров:  1  [  0 KB/s  ]   Подробная статистика пиров
 
   
 
 
 

[Цитировать]

Ходули / Los Zancos
Страна: Испания
Жанр: драма
Год выпуска: 1984
Продолжительность: 01:32:55
Перевод: Субтитры
Cубтитры: русские, английские
Оригинальная аудиодорожка: испанский

Режиссер: Карлос Саура / Carlos Saura
В ролях: Фернандо Фернан Гомес, Антонио Бандерас, Лаура дель Соль, Рамон Гарсия, Хавьер Джименез, Рафаэль Лопес
Описание: Профессор местного университета Анхель переживает тяжелый период своей жизни - его жена и две дочери погибли, и большой дом, в котором он остался один, всякий раз напоминает ему об утрате родных. Профессор близок к самоубийству, не в силах пережить случившееся. Но неожиданная встреча с Терезой возвращает Анхелю интерес к жизни. Она молода, привлекательна, живет по соседству и просит Анхеля написать пьесу, по которой Тереза и ее труппа "Ходули" поставят уличный спектакль...
Качество видео: DVDRip
Формат видео: AVI
Видео: 672x400 (1.68:1), 25 fps, XviD build 73 ~2039 kbps avg, 0.30 bit/pixel
Аудио: 48 kHz, AC3 Dolby Digital, 2/0 (L,R) ch, ~192 kbps

Фрагмент субтитров

448
01:07:07,040 --> 01:07:08,553
Анхель, садитесь.
449
01:07:09,360 --> 01:07:12,511
Мы с Вирджинией едем забирать
Терезу. Вы с нами?
450
01:07:19,320 --> 01:07:20,719
Вы искали Терезу?
451
01:07:20,720 --> 01:07:24,599
Я просто гулял. Я очень
люблю гулять.
452
01:07:25,160 --> 01:07:31,190
Когда я был молод, я мог пешком
пройти много миль с друзьями.
453
01:07:32,440 --> 01:07:33,634
Это дорогого стоит.
454
01:07:35,200 --> 01:07:39,876
А теперь каждый день я довольствуюсь
часом на открытом воздухе.
455
01:07:42,040 --> 01:07:45,430
Я уже давно хочу поговорить
с вами.
456
01:07:46,600 --> 01:07:50,991
- О пьесе?
- Нет, о Терезе.
457
01:07:54,480 --> 01:07:56,232
Я знаю, что вы её любите.
458
01:07:57,280 --> 01:08:00,158
Поэтому я решил, что должен вам
об этом рассказать.
459
01:08:01,480 --> 01:08:06,713
Это будет секрет между двумя
друзьями, хорошо?
460
01:08:06,720 --> 01:08:07,630
Хорошо.
461
01:08:09,720 --> 01:08:12,632
Она, как и вы, пыталась покончить
с собой.
462
01:08:14,680 --> 01:08:17,353
- Не может быть.
- Это правда.
463
01:08:18,160 --> 01:08:22,915
На неё это не похоже. Она
вечно смеётся.
464
01:08:23,600 --> 01:08:26,114
Она такая жизнерадостная.
465
01:08:26,120 --> 01:08:27,951
Мы уже жили вместе, когда
это случилось.
466
01:08:30,200 --> 01:08:32,316
Я свалял дурака, переспал с одной
из её подруг.
467
01:08:32,760 --> 01:08:37,197
Ничего такого, но она всё восприняла
очень серьёзно...
468
01:08:38,280 --> 01:08:43,638
Она вскрыла себе вены, была
на волосок от смерти.

MediaInfo

Общее
Полное имя : H:\Los.Zancos.1984.dvdrip_[1.46]_[teko]\Los.Zancos.1984.dvdrip_[1.46].avi
Формат : AVI
Формат/Информация : Audio Video Interleave
Размер файла : 1,45 Гбайт
Продолжительность : 1 ч. 32 м.
Общий поток : 2241 Кбит/сек
Программа кодирования : VirtualDubMod 1.5.10.3 | www.virtualdub-fr.org || (build 2550/release)
Библиотека кодирования : VirtualDubMod build 2550/release
Видео
Идентификатор : 0
Формат : MPEG-4 Visual
Профиль формата : Advanced Simple@L5
Параметр BVOP формата : 1
Параметр QPel формата : Нет
Параметр GMC формата : Без точки перехода
Параметр матрицы формата : Выборочная
Идентификатор кодека : XVID
Идентификатор кодека/Подсказка : XviD
Продолжительность : 1 ч. 32 м.
Битрейт : 2039 Кбит/сек
Ширина : 672 пикселя
Высота : 400 пикселей
Соотношение сторон : 1,680
Частота кадров : 25,000 кадров/сек
Цветовое пространство : YUV
Субдискретизация насыщенности : 4:2:0
Битовая глубина : 8 бит
Тип развёртки : Прогрессивная
Метод сжатия : С потерями
Бит/(Пиксели*Кадры) : 0.303
Размер потока : 1,32 Гбайт (91%)
Библиотека кодирования : XviD 73
Аудио
Идентификатор : 1
Формат : AC-3
Формат/Информация : Audio Coding 3
Расширение режима : CM (complete main)
Параметр Endianness формата : Big
Идентификатор кодека : 2000
Продолжительность : 1 ч. 32 м.
Вид битрейта : Постоянный
Битрейт : 192 Кбит/сек
Каналы : 2 канала
Расположение каналов : Front: L R
Частота : 48,0 КГц
Битовая глубина : 16 бит
Метод сжатия : С потерями
Размер потока : 128 Мбайт (9%)
Выравнивание : Разделение по промежуткам
Продолжительность промежутка : 40 мс. (1,00 видеокадр)
Время предзагрузки промежутка : 500 мс.
[teatrix.ru].t10207.torrent 
Торрент: Зарегистрирован [ 2015-11-01 15:15 ] · 643A9364A9608157227E9775A0E41DE91060528D

Скачать .torrent

Скачать

15 KB

Статус: проверено
Скачан: 0 раз
Размер: 1.45 GB
terms.php



Быстрый ответ

Имя:

      
Для отправки сообщений необходимо включить JavaScript
Показать сообщения:    

Текущее время: 10-Дек 04:04

Часовой пояс: UTC + 3


Вы можете начинать темы
Вы можете отвечать на сообщения
Вы не можете редактировать свои сообщения
Вы не можете удалять свои сообщения
Вы не можете голосовать в опросах
Вы не можете прикреплять файлы к сообщениям
Вы можете скачивать файлы