Иберия / Iberia (Карлос Саура / Carlos Saura) [2005, Испания, документальный, музыкальный, DVDRip] + Sub Rus + Original Spa


 

[Цитировать]

Иберия / Iberia
Страна: Испания
Жанр: документальный, музыкальный
Год выпуска: 2005
Продолжительность: 01:31:20
Перевод: Не требуется
Cубтитры: русские (субтитры только для текстового вступления в начале фильма)
Оригинальная аудиодорожка: испанский

Режиссер: Карлос Саура / Carlos Saura
В ролях: Сара Барас, Антонио Каналес, Марта Карраско, Аида Гомез, Энрике Моренте, Эстрелла Моренте, Gerardo Nóñez, Хосе Антонио Руис, Маноло Санлукар, Роза Торрес Пардо
Описание: «Исаак Альбенис (1860–1909) писал музыку, связанную с Испанией и её областями. Под общим названием «ИБЕРИЯ» мы объединили произведения, которые сочли наиболее значительными, обращаясь с ними свободно, по собственному усмотрению, но с неизменным почтением к одному из наших лучших композиторов».
Описания фильма на большинстве Интернет-сайтов повторяют один и тот же источник, грешащий непониманием, изобилующий терминологической путаницей и перевранными именами. То, что не противоречит здравому смыслу, с некоторыми изменениями процитировано далее: «Камера Сауры показывает подготовку спектакля, репетиции и изменения в представлении. Это — вселенная танца, мир страсти и творчества, главными героями в котором становятся выдающиеся артисты».

Качество видео:DVDRip
Формат видео: AVI
Видео: 704x400 (1.76:1), 25 fps, XviD build 73 ~1887 kbps avg, 0.27 bit/pixel
Аудио: 48 kHz, AC3 Dolby Digital, 3/2 (L,C,R,l,r) + LFE ch, ~384 kbps

MediaInfo

Общее
Полное имя : H:\Iberia.2005.dvdrip_[1.46]_[teko]\Iberia.2005.dvdrip_[1.46].avi
Формат : AVI
Формат/Информация : Audio Video Interleave
Размер файла : 1,46 Гбайт
Продолжительность : 1 ч. 31 м.
Общий поток : 2281 Кбит/сек
Программа кодирования : VirtualDubMod 1.5.10.3 | www.virtualdub-fr.org || (build 2550/release)
Библиотека кодирования : VirtualDubMod build 2550/release
Видео
Идентификатор : 0
Формат : MPEG-4 Visual
Профиль формата : Advanced Simple@L5
Параметр BVOP формата : 1
Параметр QPel формата : Нет
Параметр GMC формата : Без точки перехода
Параметр матрицы формата : Выборочная
Идентификатор кодека : XVID
Идентификатор кодека/Подсказка : XviD
Продолжительность : 1 ч. 31 м.
Битрейт : 1888 Кбит/сек
Ширина : 704 пикселя
Высота : 400 пикселей
Соотношение сторон : 16:9
Частота кадров : 25,000 кадров/сек
Цветовое пространство : YUV
Субдискретизация насыщенности : 4:2:0
Битовая глубина : 8 бит
Тип развёртки : Прогрессивная
Метод сжатия : С потерями
Бит/(Пиксели*Кадры) : 0.268
Размер потока : 1,20 Гбайт (83%)
Библиотека кодирования : XviD 73
Аудио
Идентификатор : 1
Формат : AC-3
Формат/Информация : Audio Coding 3
Расширение режима : CM (complete main)
Параметр Endianness формата : Big
Идентификатор кодека : 2000
Продолжительность : 1 ч. 31 м.
Вид битрейта : Постоянный
Битрейт : 384 Кбит/сек
Каналы : 6 каналов
Расположение каналов : Front: L C R, Side: L R, LFE
Частота : 48,0 КГц
Битовая глубина : 16 бит
Метод сжатия : С потерями
Размер потока : 251 Мбайт (17%)
Выравнивание : Разделение по промежуткам
Продолжительность промежутка : 40 мс. (1,00 видеокадр)
Время предзагрузки промежутка : 500 мс.



Показать сообщения:    

Текущее время: 11-Дек 05:20

Часовой пояс: UTC + 3


Вы не можете начинать темы
Вы не можете отвечать на сообщения
Вы не можете редактировать свои сообщения
Вы не можете удалять свои сообщения
Вы не можете голосовать в опросах
Вы не можете прикреплять файлы к сообщениям
Вы не можете скачивать файлы