Зеленая комната / La chambre verte / The Green Room (Франсуа Трюффо / François Truffaut) [1978, Франция, драма, DVDRip-AVC] + Sub Rus + Original Fre


Статистика раздачи [Обновить пиров]
Размер:  1.46 GB   |    Зарегистрирован:  1 год 1 месяц   |    Скачан:  0 раз

Полного источника не было: Никогда

Личеров:  1  [  0 KB/s  ]   Подробная статистика пиров
 
   
 
 
 

[Цитировать]

Зеленая комната / La chambre verte / The Green Room
Страна: Франция
Жанр: драма
Год выпуска: 1978
Продолжительность: 01:30:57
Перевод: Субтитры (семья ГД)
Cубтитры: русские
Оригинальная аудиодорожка: французский
Навигация по главам: есть
Режиссер: Франсуа Трюффо / François Truffaut
В ролях: Франсуа Трюффо, Натали Бэй, Ж. Дастэ, Ж.-П. Дюко, М. Дюро, Ж. Лобр, Ж.-П. Мулен, А. Миллер и др.
О фильме: Трюффо играет вернувшегося с Первой мировой войны журналиста, который оказался сломленным смертью своей жены, а также грузом понимания того, что практически все его друзья, которых он знал и любил — умерли на войне, а он остался жить. Поэтому он посвящает свои оставшиеся дни тому, чтобы никто не был забыт, сколько бы времени ни прошло. Он пишет некрологи, строит памятники и склепы, а также целый храм для усопших... По мотивам рассказов Генри Джеймса "Алтарь мертвых", "Друзья друзей", "Зверь из джунглей". Один из самых неразрекламированных и определенно самый личный фильм Трюффо. Сам режиссер сыграл роль Жульена Давенна, тихого и одинокого человека, провинциального журналиста, пишущего некрологи для захудалого журнала. Он явно одержим смертью, считая, что усопшие не получают любви и внимания, которых они заслуживают. Это вызвано частично тем, что он вернулся невредимым с полей первой мировой войны, тогда как многие, кого он знал, погибли или были искалечены, частично внезапной смертью любимой жены. В честь ее памяти он сооружает усыпальницу. На кладбище Жульен обнаруживает нуждающуюся в ремонте часовню и переконструирует ее в изысканный храм для мертвых, заполняя его фотографиями мертвых друзей и знакомых, погибших в окопах. Своеобразное видение темы находится в резком контрасте с многочисленными фильмами о тех, кто погиб за свою страну, "Зеленая комната", возможно, просто рассказывает о человеке, который пережил войну и терзается муками вины оставшегося в живых. Снят фильм по мотивам двух рассказов Генри Джеймса, а на стенах часовни, где кроме покойных Генри Джеймса, Марселя Пруста и Жана Кокто, можно увидеть и актера Оскара Вернера, во время съемок фильма еще живого. (Иванов М.)
Франсуа Трюффо: «Мне кажется, что «Зеленая комната» - не столько фильм о смерти, сколько фильм о мертвых. Это фильм о чувствах, как и большинство фильмов. Просто на этот раз речь идет о наших чувствах по отношению к мертвым. Это фильм о силе воспоминания, о том, нужно нам забвение или нет. Для меня это вариации фильма о любви».
Натали Бэй: «Франсуа говорил, что сначала искал другого исполнителя на роль Жюльена Давена – главного героя «Зеленой комнаты». Но я думаю, он всегда хотел сыграть ее сам. Одновременно эта роль очень тревожила его. Я думаю, он пригласил меня, чтобы чувствовать себя увереннее».

Доп. информация: http://www.imdb.com/title/tt0077315/
Сэмпл: http://sendfile.su/1170003
Качество видео: DVDRip-AVC
Формат видео: MKV
Видео: x264, 720x576@768x576 (4:3), 25 fps, ~2100 kbps avg, 0.20 bit/pixel
Аудио: 48 kHz, AC3 Dolby Digital, 2/0 (L,R) ch, ~192 kbps avg

MediaInfo

Общее
Уникальный идентификатор : 183492329276098553195588728146015929144 (0x8A0B564F94E90DEE87E342BD9759C338)
Полное имя : H:\Фильмы\Зеленая комната\La_chambre_verte_1978.DVDRip-AVC.mkv
Формат : Matroska
Версия формата : Version 4 / Version 2
Размер файла : 1,46 Гбайт
Продолжительность : 1 ч. 30 м.
Общий поток : 2294 Кбит/сек
Название фильма : La chambre verte (Francois Truffaut, 1978) DVDRip-AVC
Дата кодирования : UTC 2014-08-10 10:41:31
Программа кодирования : mkvmerge v6.1.0 ('Old Devil') built on Mar 4 2013 09:10:42
Библиотека кодирования : libebml v1.3.0 + libmatroska v1.4.0
Видео
Идентификатор : 1
Формат : AVC
Формат/Информация : Advanced Video Codec
Профиль формата : High@L4.1
Параметр CABAC формата : Да
Параметр ReFrames формата : 16 кадров
Идентификатор кодека : V_MPEG4/ISO/AVC
Продолжительность : 1 ч. 30 м.
Битрейт : 2100 Кбит/сек
Ширина : 720 пикселей
Высота : 576 пикселей
Соотношение сторон : 4:3
Режим частоты кадров : Постоянный
Частота кадров : 25,000 кадров/сек
Стандарт вещания : PAL
Цветовое пространство : YUV
Субдискретизация насыщенности : 4:2:0
Битовая глубина : 8 бит
Тип развёртки : Прогрессивная
Бит/(Пиксели*Кадры) : 0.203
Размер потока : 1,31 Гбайт (90%)
Заголовок : The_Green_Room
Библиотека кодирования : x264 core 142 r2453 ea0ca51
Настройки программы : cabac=1 / ref=16 / deblock=1:-3:-2 / analyse=0x3:0x133 / me=umh / subme=10 / psy=1 / psy_rd=1.00:0.25 / mixed_ref=1 / me_range=48 / chroma_me=1 / trellis=2 / 8x8dct=1 / cqm=0 / deadzone=6,6 / fast_pskip=0 / chroma_qp_offset=-4 / threads=6 / lookahead_threads=1 / sliced_threads=0 / nr=0 / decimate=0 / interlaced=0 / bluray_compat=0 / constrained_intra=0 / bframes=10 / b_pyramid=2 / b_adapt=2 / b_bias=0 / direct=3 / weightb=1 / open_gop=0 / weightp=2 / keyint=250 / keyint_min=25 / scenecut=40 / intra_refresh=0 / rc=2pass / mbtree=0 / bitrate=2100 / ratetol=1.0 / qcomp=0.80 / qpmin=10 / qpmax=51 / qpstep=4 / cplxblur=20.0 / qblur=0.5 / ip_ratio=1.10 / pb_ratio=1.10 / aq=1:0.50
Язык : English
Default : Да
Forced : Нет
Аудио
Идентификатор : 2
Формат : AC-3
Формат/Информация : Audio Coding 3
Расширение режима : CM (complete main)
Параметр Endianness формата : Big
Идентификатор кодека : A_AC3
Продолжительность : 1 ч. 30 м.
Вид битрейта : Постоянный
Битрейт : 192 Кбит/сек
Каналы : 2 канала
Расположение каналов : Front: L R
Частота : 48,0 КГц
Метод сжатия : С потерями
Размер потока : 125 Мбайт (8%)
Заголовок : Original
Язык : French
Default : Да
Forced : Нет
Текст
Идентификатор : 3
Формат : UTF-8
Идентификатор кодека : S_TEXT/UTF8
Идентификатор кодека/Информация : UTF-8 Plain Text
Язык : Russian
Default : Да
Forced : Нет
Меню
00:00:00.000 : en:Chapter 1
00:06:19.520 : en:Chapter 2
00:12:25.200 : en:Chapter 3
00:18:43.200 : en:Chapter 4
00:23:17.080 : en:Chapter 5
00:28:54.720 : en:Chapter 6
00:35:37.920 : en:Chapter 7
00:42:55.840 : en:Chapter 8
00:48:48.800 : en:Chapter 9
00:56:18.880 : en:Chapter 10
01:00:38.320 : en:Chapter 11
01:07:38.760 : en:Chapter 12
01:13:23.400 : en:Chapter 13
01:21:09.480 : en:Chapter 14
01:27:22.680 : en:Chapter 15

x264

x264 [info]: frame I:735 Avg QP:17.81 size: 33167
x264 [info]: frame P:30427 Avg QP:18.80 size: 17678
x264 [info]: frame B:105280 Avg QP:19.49 size: 8267
x264 [info]: consecutive B-frames: 1.9% 3.6% 9.7% 16.9% 18.7% 40.9% 5.6% 2.0% 0.4% 0.2% 0.2%
x264 [info]: mb I I16..4: 11.4% 80.4% 8.3%
x264 [info]: mb P I16..4: 2.8% 16.7% 1.2% P16..4: 41.5% 18.1% 15.0% 0.3% 0.1% skip: 4.3%
x264 [info]: mb B I16..4: 0.1% 1.5% 0.1% B16..8: 36.8% 11.8% 2.7% direct:16.0% skip:31.0% L0:40.1% L1:34.4% BI:25.5%
x264 [info]: 8x8 transform intra:82.3% inter:48.9%
x264 [info]: direct mvs spatial:92.6% temporal:7.4%
x264 [info]: coded y,uvDC,uvAC intra: 82.1% 72.4% 31.9% inter: 40.2% 30.0% 5.7%
x264 [info]: i16 v,h,dc,p: 77% 7% 6% 10%
x264 [info]: i8 v,h,dc,ddl,ddr,vr,hd,vl,hu: 18% 11% 19% 7% 8% 9% 8% 10% 11%
x264 [info]: i4 v,h,dc,ddl,ddr,vr,hd,vl,hu: 15% 11% 4% 8% 13% 14% 12% 11% 12%
x264 [info]: i8c dc,h,v,p: 30% 32% 27% 12%
x264 [info]: Weighted P-Frames: Y:16.7% UV:4.8%
x264 [info]: ref P L0: 40.2% 10.9% 15.6% 7.5% 5.6% 4.5% 3.8% 2.3% 2.0% 1.7% 1.5% 1.3% 1.1% 0.9% 0.8% 0.5%
x264 [info]: ref B L0: 70.1% 14.9% 4.8% 2.5% 1.8% 1.4% 1.2% 0.7% 0.6% 0.5% 0.4% 0.4% 0.3% 0.2% 0.1%
x264 [info]: ref B L1: 93.8% 6.2%
[teatrix.ru].t10209.torrent 
Торрент: Зарегистрирован [ 2015-11-01 15:15 ] · 238DE1DE6609E527DA72A308E07EBB14B37DD6F2

Скачать .torrent

Скачать

15 KB

Статус: проверено
Скачан: 0 раз
Размер: 1.46 GB
terms.php



Быстрый ответ

Имя:

      
Для отправки сообщений необходимо включить JavaScript
Показать сообщения:    

Текущее время: 03-Дек 16:43

Часовой пояс: UTC + 3


Вы можете начинать темы
Вы можете отвечать на сообщения
Вы не можете редактировать свои сообщения
Вы не можете удалять свои сообщения
Вы не можете голосовать в опросах
Вы не можете прикреплять файлы к сообщениям
Вы можете скачивать файлы