Соль Земли / The Salt of the Earth (Джулиано Рибейру Сальгаду / Juliano Ribeiro Salgado, Вим Вендерс / Wim Wenders) [2014, Франция, Бразилия, Италия, документальный, биография, BDRip] MVO (iTunes) + Sub Rus + Original Fre


Статистика раздачи [Обновить пиров]
Размер:  1.8 GB   |    Зарегистрирован:  1 год 1 месяц   |    Скачан:  1 раз
Сидов:  1  [  0 KB/s  ]   Личеров:  2  [  0 KB/s  ]   Подробная статистика пиров
 
   
 
 
 

[Цитировать]

Соль Земли / The Salt of the Earth
Страна: Франция, Бразилия, Италия
Жанр: документальный, биография
Год выпуска: 2014
Продолжительность: 01:50:01
Перевод: Профессиональный (многоголосый закадровый) - iTunes
Cубтитры: русские (imvolk-13)
Оригинальная аудиодорожка: французский

Режиссер: Джулиано Рибейру Сальгаду / Juliano Ribeiro Salgado, Вим Вендерс / Wim Wenders
В ролях: Себастьян Сальгадо, Вим Вендерс, Лейла Ваник Сальгадо, Джулиано Рибейру Сальгаду, Хьюго Барбье, Жак Бартелеми, Régis Muller, Жоау Пессоа Маттос, Лени Ваник Маттос, Мария Тереза Сальгадо Роча Бастос
Описание: Вот уже 40 лет бразильский фотограф Себастьян Сальгадо путешествует по миру и наблюдает за тем, как меняется жизнь людей. Он стал свидетелем важнейших событий нашей истории: войны, голод, миграции. Сейчас Сальгадо занялся исследованием дикой природы. Он побывал там, где еще не ступала нога человека.
Вместе с Себастьяном Сальгадо съемочная группа фильма отправилась в самые дальние и загадочные места на Земле – в сердце Амазонии, джунгли Западного Папуа и болота региона Пантанал в Бразилии, на остров Врангеля в Северном Ледовитом океане.

Качество видео: BDRip - BDRemux 1080p
Формат видео: AVI
Видео: 720x384 (1.88:1), 23.976 fps, XviD build 73 ~1502 kbps avg, 0.23 bit/pixel
Аудио: 48 kHz, AC3 Dolby Digital, 3/2 (L,C,R,l,r) + LFE ch, ~384 kbps - многоголосый
Аудио: 48 kHz, AC3 Dolby Digital, 3/2 (L,C,R,l,r) + LFE ch, ~448 kbps - оригинал (отдельным файлом)

MediaInfo

Общее
Полное имя : H:\The.Salt.of.the.Earth.2014.bdrip_[1.46]_[teko]\The.Salt.of.the.Earth.2014.bdrip_[1.46].avi
Формат : AVI
Формат/Информация : Audio Video Interleave
Размер файла : 1,46 Гбайт
Продолжительность : 1 ч. 50 м.
Общий поток : 1896 Кбит/сек
Программа кодирования : VirtualDubMod 1.5.10.3 | www.virtualdub-fr.org || (build 2550/release)
Библиотека кодирования : VirtualDubMod build 2550/release
Видео
Идентификатор : 0
Формат : MPEG-4 Visual
Профиль формата : Advanced Simple@L5
Параметр BVOP формата : 1
Параметр QPel формата : Нет
Параметр GMC формата : Без точки перехода
Параметр матрицы формата : Выборочная
Идентификатор кодека : XVID
Идентификатор кодека/Подсказка : XviD
Продолжительность : 1 ч. 50 м.
Битрейт : 1503 Кбит/сек
Ширина : 720 пикселей
Высота : 384 пикселя
Соотношение сторон : 1,85:1
Частота кадров : 23,976 кадра/сек
Цветовое пространство : YUV
Субдискретизация насыщенности : 4:2:0
Битовая глубина : 8 бит
Тип развёртки : Прогрессивная
Метод сжатия : С потерями
Бит/(Пиксели*Кадры) : 0.227
Размер потока : 1,15 Гбайт (79%)
Библиотека кодирования : XviD 73
Аудио
Идентификатор : 1
Формат : AC-3
Формат/Информация : Audio Coding 3
Расширение режима : CM (complete main)
Параметр Endianness формата : Big
Идентификатор кодека : 2000
Продолжительность : 1 ч. 50 м.
Вид битрейта : Постоянный
Битрейт : 384 Кбит/сек
Каналы : 6 каналов
Расположение каналов : Front: L C R, Side: L R, LFE
Частота : 48,0 КГц
Битовая глубина : 16 бит
Метод сжатия : С потерями
Размер потока : 302 Мбайт (20%)
Выравнивание : Разделение по промежуткам
Продолжительность промежутка : 42 мс. (1,00 видеокадр)
Время предзагрузки промежутка : 500 мс.
[teatrix.ru].t10210.torrent 
Торрент: Зарегистрирован [ 2015-11-01 15:15 ] · ADC20F330C9F8F771A3A685E3E46D73BD8586376

Скачать .torrent

Скачать

19 KB

Статус: проверено
Скачан: 1 раз
Размер: 1.8 GB
terms.php



Быстрый ответ

Имя:

      
Для отправки сообщений необходимо включить JavaScript
Показать сообщения:    

Текущее время: 08-Дек 03:09

Часовой пояс: UTC + 3


Вы можете начинать темы
Вы можете отвечать на сообщения
Вы не можете редактировать свои сообщения
Вы не можете удалять свои сообщения
Вы не можете голосовать в опросах
Вы не можете прикреплять файлы к сообщениям
Вы можете скачивать файлы