Хлеммур / Конечная остановка / Hlemmur / Last Stop (Олафюр Свейнссон / Olafur Sveinsson) [2002, Исландия / Германия, исландское авторское неигровое кино, DVDRip] VO (Fatumovich) + Sub Rus + Original


Статистика раздачи [Обновить пиров]
Размер:  1.41 GB   |    Зарегистрирован:  1 год 1 месяц   |    Скачан:  1 раз

Полного источника не было: 3 месяца 8 дней

Личеров:  1  [  0 KB/s  ]   Подробная статистика пиров
 
   
 
 
 

[Цитировать]

Хлеммур / Конечная остановка
Hlemmur / Last Stop
- Страна: Исландия / Германия
Жанр: исландское авторское неигровое кино
Год выпуска: 2002
Продолжительность: 01:25:21
Перевод: Одноголосый закадровый - Fatumovich
Cубтитры: русские, английские, немецкие
Оригинальная аудиодорожка: исландский
Режиссер: Олафюр Свейнссон / Olafur Sveinsson
В ролях: Бьёргвин Оумар Оулафссон, Бьёргвин Рагнар Тоургейрссон, Оумар Гвюдйоунссон Мирдал, Ханнес Тоур Трёйстасон, Оулафюр Кальман Хафстейнссон, Йоузеф Сумарлидасон, Рагнар Рагнарссон, Сигрун Ауднадоуттир-Описание: Хлеммур - центральный автовокзал Рейкьявика. Как на всяком вокзале, в нем есть кассовый зал, скамейки для ожидания, закусочная и телефон. Кроме рядовых пассажиров, ожидающих прибытия своего маршрута, Хлеммур наполняет довольно разношерстная публика. На его скамеечках и в окрестностях "пасутся" алкоголики и бомжи, завсегдатаи и просто одинокие люди, которым некуда себя деть, приходящие с кем-нибудь поболтать. У каждого из них свои обстоятельства и своя, зачастую трагическая, история, заставляющая приходить сюда изо дня в день.
Все герои этого фильма являются реальными жителями Рейкьявика, согласившимися принять участие в съемках.-Сэмпл: http://multi-up.com/1073677
Качество видео: DVDRip
Формат видео: AVI
Видео: XVID 704x544 (1,294) 25fps 1905kbps
Аудио: MP3 44100Hz stereo 224kbps - русский
Аудио 2: AC-3 48000Hz stereo 224kbps - оригинал
Формат субтитров: русские: softsub (SRT), английские и немецкие: sub+idx

MediaInfo

Общее
Полное имя : F:\Hlemmur\Hlemmur.avi
Формат : AVI
Формат/Информация : Audio Video Interleave
Размер файла : 1,41 Гбайт
Продолжительность : 1 ч. 25 м.
Общий поток : 2364 Кбит/сек
Программа кодирования : VirtualDubMod 1.5.10.2 (build 2540/release)
Библиотека кодирования : VirtualDubMod build 2540/release
Видео
Идентификатор : 0
Формат : MPEG-4 Visual
Профиль формата : Advanced Simple@L5
Параметр BVOP формата : 1
Параметр QPel формата : Нет
Параметр GMC формата : Без точки перехода
Параметр матрицы формата : Default (H.263)
Идентификатор кодека : XVID
Идентификатор кодека/Подсказка : XviD
Продолжительность : 1 ч. 25 м.
Битрейт : 1905 Кбит/сек
Ширина : 704 пикселя
Высота : 544 пикселя
Соотношение сторон : 1,294
Частота кадров : 25,000 кадров/сек
Цветовое пространство : YUV
Субдискретизация насыщенности : 4:2:0
Битовая глубина : 8 бит
Тип развёртки : Прогрессивная
Метод сжатия : С потерями
Бит/(Пиксели*Кадры) : 0.199
Размер потока : 1,14 Гбайт (81%)
Библиотека кодирования : XviD 67
Аудио #1
Идентификатор : 1
Формат : MPEG Audio
Версия формата : Version 1
Профиль формата : Layer 3
Режим : Joint stereo
Идентификатор кодека : 55
Идентификатор кодека/Подсказка : MP3
Продолжительность : 1 ч. 25 м.
Вид битрейта : Постоянный
Битрейт : 224 Кбит/сек
Каналы : 2 канала
Частота : 44,1 КГц
Метод сжатия : С потерями
Размер потока : 137 Мбайт (9%)
Выравнивание : Разделение по промежуткам
Продолжительность промежутка : 40 мс. (1,00 видеокадр)
Время предзагрузки промежутка : 500 мс.
Аудио #2
Идентификатор : 2
Формат : AC-3
Формат/Информация : Audio Coding 3
Расширение режима : CM (complete main)
Параметр Endianness формата : Big
Идентификатор кодека : 2000
Продолжительность : 1 ч. 25 м.
Вид битрейта : Постоянный
Битрейт : 224 Кбит/сек
Каналы : 2 канала
Расположение каналов : Front: L R
Частота : 48,0 КГц
Битовая глубина : 16 бит
Метод сжатия : С потерями
Размер потока : 137 Мбайт (9%)
Выравнивание : Разделение по промежуткам
Продолжительность промежутка : 137 мс. (3,43 видеокадра)
Время предзагрузки промежутка : 548 мс.

Скриншот c названием фильма

Скриншоты

[teatrix.ru].t10211.torrent 
Торрент: Зарегистрирован [ 2015-11-01 15:15 ] · 2D944D16140DD39E24069CCC76BE72ED6CDF4068

Скачать .torrent

Скачать

15 KB

Статус: проверено
Скачан: 1 раз
Размер: 1.41 GB
terms.php



Быстрый ответ

Имя:

      
Для отправки сообщений необходимо включить JavaScript
Показать сообщения:    

Текущее время: 06-Дек 22:54

Часовой пояс: UTC + 3


Вы можете начинать темы
Вы можете отвечать на сообщения
Вы не можете редактировать свои сообщения
Вы не можете удалять свои сообщения
Вы не можете голосовать в опросах
Вы не можете прикреплять файлы к сообщениям
Вы можете скачивать файлы