Джоаккино Россини - Газета (Дарио Фо) / Gioachino Rossini - La Gazzetta (Dario Fo) (Gran Teatre del Liceu; Fo, Barbacini; Forte, Pratico, Spagnoli, Workman, Bienkowska, Martins, Orfila, Canturri) [2005, Opera, BDRip 720p]


 

[Цитировать]

Джоаккино Россини - Газета / Gioachino Rossini - La Gazzetta
Год выпуска: 2005
Лейбл: Opus Arte
Страна-производитель: США
Жанр: Opera
Продолжительность: 02:27:06
Язык: Итальянский
Перевод: Не требуется
Режиссер: Dario Fo (Дарио Фо)
Дирижер: Maurizio Barbacini (Маурицио Барбачини)
Исполнители:
Cinzia Forte (Чинция Форте) - Lisetta,
Bruno Praticò (Бруно Пратико) - Don Pomponio,
Pietro Spagnoli (Пьетро Спаньоли) - Filippo,
Charles Workman (Чарлз Уоркман) - Alberto,
Agata Bienkowska (Агата Бенковская) - Madame La Rose,
Marisa Martins (Мариса Мартинс) - Doralice,
Simón Orfila (Симон Орфила) - Monsù Traversen,
Marc Canturri (Марк Кантурри) - Anselmo
Intermezzo Choir (хор интермеццо Большого театра «Лисео»), Liceu Grand Theatre Symphony Orchestra (симфонический оркестр Большого театра «Лисео»)

Описание

Газета (La gazzetta) — опера-буффа (по авторскому определению — драма) Дж. Россини в 2 действиях, либретто Л. Тоттолы по либретто Дж. Паломбы, основанному на пьесе К. Гольдони «Брак по конкурсу». Премьера: Неаполь, 26 сентября 1816 г.
Жанровая картина итальянской жизни, не лишенная сатирической остроты. Действие происходит в Париже, недалеко от гостиницы Филиппа. Дон Помпонио, неаполитанский дворянин, желающий выдать свою дочь Лизетту за знатного вельможу, публикует объявление в местной газете, в надежде найти претендента. Новость вызвала у друзей и соседей смех и удивление, тем более что Лизетта тайно встречается с трактирщиком Филиппом. Со временем дело усложняется ещё и тем, что граф Альберт, первым обратившийся к Помпонио с просьбой жениться на его дочери, как и было написано в газете, влюбляется в молодую Дораличе, которая, в свою очередь, обещана своим отцом г-ну Ансельмо Траверсену. История становится ещё более сложной: чтобы прекратить роман между Лизеттой и трактирщиком Филиппом, дон Помпонио подговаривает его взять в жёны мадам Розу. Это вызывает ревность у Лизетты, а граф Альберт, в свою очередь, обезумевает от ревности к Дораличе. Филипп умоляет Дона Помпонио разрешить им с Лизеттой пожениться, но та до сих пор ревнует и отказывает. После драки, дуэли и костюмированного бала всё становится на свои места. Ансельмо с Помпонио вынуждены согласиться на две свадьбы.
The Nobel Prize-winning writer Dario Fo applies his inventive genius to Rossini's comic opera in its premiere Blu-ray release. Recorded in 2005 under the musical direction of Maurizio Barbacini, Fo's production brings fresh vitality and colour to the story of Lisetta, and of her father's attempts to find a husband for her through an advertisement in the newspaper La Gazzetta.
Recorded live at the Gran Teatre del Liceu, Barcelona, on 1 and 3 July 2005.

Об опере

В списке сочинений Россини его «Газета» буквально втиснута между «Севильским цирюльником» и «Золушкой»: все три оперы написаны в течение одного года, но «Газете» при этом повезло несопоставимо меньше по сравнению с остальными двумя. Даже партитура её дошла до нас с утратами, и только в последние полвека, после того как итальянцы привили всему миру интерес к менее хитовому Россини, «Газету» стали воспринимать более или менее всерьёз. Насколько это возможно: неуклюже-запутанный сюжет (даром что заимствованный у Гольдони) на фоне многих других опер-буфф Россини выделяется, а уж «Цирюльник» по сравнению с ней — просто-таки японское хайку в смысле стройности и простоты. Амбициозный родитель Дон Помпонио, ушлая дочка Лизетта, которую отец хочет выдать замуж по объявлению в газете (это отсюда название), тайный жених Филиппо, который уже есть без всякого объявления, плюс ещё одна пара (Дораличе и Альберто) — понятно, что в конце все останутся при своём, но пробираться к счастливому финалу приходится по совсем фарсовым кочкам. Увертюру композитор, почувствовав неуспех «Газеты», успешно пристроил в «Золушку» (чего ж добру пропадать), ещё некоторые фрагменты использовал потом в «Турке в Италии». Всё это, впрочем, не отменяет очевидного факта, что и препустая опера Россини всё равно умеет быть очень обаятельной, и за рассыпанные по ней моменты чистой эйфории прощаешь многое — только бы играли и пели хорошо.
Качество видео: BDRip - Blu-ray 1080i
Формат/Контейнер: MKV
Видео кодек: H.264
Аудио кодек: AC3
Видео поток: H.264, 1280x720, 625925 6 kbps, 29.970 fps
Аудио поток: AC3, 192 kbps, 48 kHz, 2 ch. AC3, 448 kbps, 48 kHz, 6 ch

MediaInfo

Общее
Уникальный идентификатор : 241400509287561892321891274182403364859 (0xB59C0C04703A4ADD8797E755528517FB)
Полное имя : W:\Torrent_4\Россини - Газета (Gran Teatre del Liceu) (2005) (BDrip 720p, AC3 5.1).mkv
Формат : Matroska
Версия формата : Version 4 / Version 2
Размер файла : 6,88 Гбайт
Продолжительность : 2 ч. 27 м.
Режим общего битрейта : Переменный
Общий поток : 6698 Кбит/сек
Дата кодирования : UTC 2015-02-11 15:22:12
Программа кодирования : mkvmerge v7.6.0 ('Garden of Dreams') 64bit built on Feb 8 2015 13:04:34
Библиотека кодирования : libebml v1.3.1 + libmatroska v1.4.2
DURATION : 02:27:07.008000000
NUMBER_OF_FRAMES : 275844
NUMBER_OF_BYTES : 211848192
_STATISTICS_WRITING_APP : mkvmerge v7.6.0 ('Garden of Dreams') 64bit built on Feb 8 2015 13:04:34
_STATISTICS_WRITING_DATE_UTC : 2015-02-11 15:22:12
_STATISTICS_TAGS : BPS DURATION NUMBER_OF_FRAMES NUMBER_OF_BYTES
Видео
Идентификатор : 1
Формат : AVC
Формат/Информация : Advanced Video Codec
Профиль формата : High@L4.1
Параметр CABAC формата : Да
Параметр ReFrames формата : 3 кадра
Идентификатор кодека : V_MPEG4/ISO/AVC
Продолжительность : 2 ч. 27 м.
Вид битрейта : Переменный
Битрейт : 5925 Кбит/сек
Максимальный битрейт : 8000 Кбит/сек
Ширина : 1280 пикселей
Высота : 720 пикселей
Соотношение сторон : 16:9
Режим частоты кадров : Постоянный
Частота кадров : 29,970 кадров/сек
Стандарт вещания : NTSC
Цветовое пространство : YUV
Субдискретизация насыщенности : 4:2:0
Битовая глубина : 8 бит
Тип развёртки : Чересстрочная
Порядок развёртки : Верхнее поле первое
Бит/(Пиксели*Кадры) : 0.215
Размер потока : 6,09 Гбайт (88%)
Язык : English
Default : Да
Forced : Нет
Основные цвета : BT.709
Характеристики трансфера : BT.709
Коэффициенты матрицы : BT.709
colour_range : Limited
Аудио #1
Идентификатор : 2
Формат : AC-3
Формат/Информация : Audio Coding 3
Расширение режима : CM (complete main)
Параметр Endianness формата : Big
Идентификатор кодека : A_AC3
Продолжительность : 2 ч. 27 м.
Вид битрейта : Постоянный
Битрейт : 448 Кбит/сек
Каналы : 6 каналов
Расположение каналов : Front: L C R, Side: L R, LFE
Частота : 48,0 КГц
Битовая глубина : 16 бит
Метод сжатия : С потерями
Размер потока : 471 Мбайт (7%)
Заголовок : AC3 5.1
Язык : Italian
Default : Да
Forced : Нет
Аудио #2
Идентификатор : 3
Формат : AC-3
Формат/Информация : Audio Coding 3
Расширение режима : CM (complete main)
Параметр Endianness формата : Big
Идентификатор кодека : A_AC3
Продолжительность : 2 ч. 27 м.
Вид битрейта : Постоянный
Битрейт : 192 Кбит/сек
Каналы : 2 канала
Расположение каналов : Front: L R
Частота : 48,0 КГц
Битовая глубина : 16 бит
Метод сжатия : С потерями
Размер потока : 202 Мбайт (3%)
Заголовок : AC3 2.0
Язык : Italian
Default : Нет
Forced : Нет

Скриншоты







Показать сообщения:    

Текущее время: 07-Дек 00:54

Часовой пояс: UTC + 3


Вы не можете начинать темы
Вы не можете отвечать на сообщения
Вы не можете редактировать свои сообщения
Вы не можете удалять свои сообщения
Вы не можете голосовать в опросах
Вы не можете прикреплять файлы к сообщениям
Вы не можете скачивать файлы