(Classical) Alexander Scriabin / Александр Скрябин - Полное собрание этюдов, частицы опуса 2, квази-вальс опус 47, прелюдии опуса 22, поэмы опуса 69 (Дмитрий Алексеев / Dmitri Alexeev) - 2015, FLAC (image+.cue) lossless


 

[Цитировать]

Alexander Scriabin / Александр Скрябин - Complete Etudes (Dmitri Alexeev)
Жанр: Classical
Год издания диска: 2015
Издатель (лейбл): Brilliant Classics
Аудиокодек: FLAC
Тип рипа: image+.cue
Битрейт аудио: lossless
Продолжительность: 01:15:26
Источник: собственный рип
Наличие сканов в содержимом раздачи: да
Треклист:

скрытый текст

3 Pieces, Op. 2
I. Etude in C-Sharp Minor. Andante
II. Prelude in B Major
III. Impromptu a la Mazur in C Major
12 Etudes, Op. 8
I. Etude in C-Sharp. Allegro
II. Etude in F-Sharp Minor. A capriccio, con forza
III. Etude in B Minor. Tempestoso
IV. Etude in B Major. Piacevole
V. Etude in E Major. Brioso
VI. Etude in A Major. Con grazia
VII. Etude in B-Flat Minor. Presto tenebroso, agitato
VIII. Etude in A-Flat Major. Lento, tempo rubato
IX. Etude in G-Sharp Minor. Alla balata
X. Etude in D-Flat Major. Allegro
XI. Etude in B-Flat Minor. Andante cantabile
XII. Etude in D-Sharp Minor. Patetico
4 Preludes, Op. 22
I. Prelude in G-Sharp Minor. Andante
II. Prelude in C-Sharp Minor. Andante
III. Prelude in B Major. Allegretto
IV. Prelude in B Minor. Andantino
8 Etudes, Op. 42
I. Etude in D-Flat Major. Presto
II. Etude in F-Sharp Minor
III. Etude in F-Sharp. Prestissimo
IV. Etude in F-Sharp. Andante
V. Etude in C-Sharp Minor. Affannato
VI. Etude in D-Flat Major. Esaltato
VII. Etude in F Minor. Agitato
VIII. Etude in E-Flat Major. Allegro
Quasi valse in F Major, Op. 47
3 Pieces, Op. 49: I. Etude in E-Flat Major
4 Pieces, Op. 56: IV. Etude
2 Poemes, Op. 69
I. Allegretto
II. Allegretto
3 Etudes, Op. 65
I. Allegro fantastic
II. Allegretto
III. Molto vivace
Исполнители:
Дмитрий Алексеев

Лог создания рипа

Exact Audio Copy V1.1 from 23. June 2015
EAC extraction logfile from 1. November 2015, 11:31
Dmitri Alexeev / Scriabin. Complete Etudes
Used drive : Optiarc DVD RW AD-7260S Adapter: 1 ID: 0
Read mode : SecureUtilize accurate stream : YesDefeat audio cache : YesMake use of C2 pointers : No
Read offset correction : 48Overread into Lead-In and Lead-Out : NoFill up missing offset samples with silence : YesDelete leading and trailing silent blocks : NoNull samples used in CRC calculations : YesUsed interface : Native Win32 interface for Win NT & 2000
Used output format : User Defined EncoderSelected bitrate : 1024 kBit/sQuality : HighAdd ID3 tag : NoCommand line compressor : C:\Program Files (x86)\Exact Audio Copy\FLAC\FLAC.EXEAdditional command line options : -6 -V -T "ARTIST=%artist%" -T "TITLE=%title%" -T "ALBUM=%albumtitle%" -T "DATE=%year%" -T "TRACKNUMBER=%tracknr%" -T "GENRE=%genre%" -T "COMMENT=%comment%" -T "BAND=%albuminterpret%" -T "ALBUMARTIST=%albuminterpret%" -T "COMPOSER=%composer%" %haslyrics%--tag-from-file=LYRICS="%lyricsfile%"%haslyrics% -T "DISCNUMBER=%cdnumber%" -T "TOTALDISCS=%totalcds%" -T "TOTALTRACKS=%numtracks%" %hascover%--picture="%coverfile%"%hascover% %source% -o %dest%
TOC of the extracted CD
Track | Start | Length | Start sector | End sector --------------------------------------------------------- 1 | 0:00.00 | 3:01.39 | 0 | 13613 2 | 3:01.39 | 0:47.08 | 13614 | 17146 3 | 3:48.47 | 1:48.35 | 17147 | 25281 4 | 5:37.07 | 1:47.45 | 25282 | 33351 5 | 7:24.52 | 2:09.03 | 33352 | 43029 6 | 9:33.55 | 2:08.74 | 43030 | 52703 7 | 11:42.54 | 1:53.23 | 52704 | 61201 8 | 13:36.02 | 2:55.03 | 61202 | 74329 9 | 16:31.05 | 1:46.08 | 74330 | 82287 10 | 18:17.13 | 2:03.12 | 82288 | 91524 11 | 20:20.25 | 3:57.44 | 91525 | 109343 12 | 24:17.69 | 5:07.32 | 109344 | 132400 13 | 29:25.26 | 2:08.42 | 132401 | 142042 14 | 31:33.68 | 4:44.55 | 142043 | 163397 15 | 36:18.48 | 2:50.45 | 163398 | 176192 16 | 39:09.18 | 1:25.35 | 176193 | 182602 17 | 40:34.53 | 0:59.65 | 182603 | 187092 18 | 41:34.43 | 1:06.42 | 187093 | 192084 19 | 42:41.10 | 1:24.73 | 192085 | 198457 20 | 44:06.08 | 2:13.34 | 198458 | 208466 21 | 46:19.42 | 1:07.54 | 208467 | 213545 22 | 47:27.21 | 1:08.32 | 213546 | 218677 23 | 48:35.53 | 2:35.34 | 218678 | 230336 24 | 51:11.12 | 3:17.58 | 230337 | 245169 25 | 54:28.70 | 2:00.43 | 245170 | 254212 26 | 56:29.38 | 1:19.37 | 254213 | 260174 27 | 57:49.00 | 2:50.28 | 260175 | 272952 28 | 60:39.28 | 1:49.14 | 272953 | 281141 29 | 62:28.42 | 0:49.69 | 281142 | 284885 30 | 63:18.36 | 0:35.29 | 284886 | 287539 31 | 63:53.65 | 2:04.46 | 287540 | 296885 32 | 65:58.36 | 1:34.19 | 296886 | 303954 33 | 67:32.55 | 3:33.69 | 303955 | 319998 34 | 71:06.49 | 2:19.20 | 319999 | 330443 35 | 73:25.69 | 2:00.15 | 330444 | 339458
Range status and errors
Selected range
Filename D:\Scriabin. Complete Etudes. Dmitri Alexeev.wav
Peak level 97.7 % Extraction speed 4.4 X Range quality 100.0 % Test CRC 24B99EB5 Copy CRC 24B99EB5 Copy OK
No errors occurred
AccurateRip summary
Track 1 not present in databaseTrack 2 not present in databaseTrack 3 not present in databaseTrack 4 not present in databaseTrack 5 not present in databaseTrack 6 not present in databaseTrack 7 not present in databaseTrack 8 not present in databaseTrack 9 not present in databaseTrack 10 not present in databaseTrack 11 not present in databaseTrack 12 not present in databaseTrack 13 not present in databaseTrack 14 not present in databaseTrack 15 not present in databaseTrack 16 not present in databaseTrack 17 not present in databaseTrack 18 not present in databaseTrack 19 not present in databaseTrack 20 not present in databaseTrack 21 not present in databaseTrack 22 not present in databaseTrack 23 not present in databaseTrack 24 not present in databaseTrack 25 not present in databaseTrack 26 not present in databaseTrack 27 not present in databaseTrack 28 not present in databaseTrack 29 not present in databaseTrack 30 not present in databaseTrack 31 not present in databaseTrack 32 not present in databaseTrack 33 not present in databaseTrack 34 not present in databaseTrack 35 not present in database
None of the tracks are present in the AccurateRip database
End of status report
---- CUETools DB Plugin V2.1.6
[CTDB TOCID: G6AJwUc1_NlxGBK5vwsx6ikLWh0-] disk not present in databaseSubmit result: G6AJwUc1_NlxGBK5vwsx6ikLWh0- has been uploaded

Содержание индексной карты (.CUE)

REM GENRE ClassicalREM DATE 2015REM DISCID 1C11AE23REM COMMENT "ExactAudioCopy v1.1"PERFORMER "Dmitri Alexeev"TITLE "Scriabin. Complete Etudes"FILE "Scriabin. Complete Etudes. Dmitri Alexeev.flac" WAVE TRACK 01 AUDIO TITLE "3 Pieces, Op. 2: I. Etude in C-Sharp Minor. Andante" PERFORMER "Dmitri Alexeev" INDEX 01 00:00:00 TRACK 02 AUDIO TITLE "3 Pieces, Op. 2: II. Prelude in B Major" PERFORMER "Dmitri Alexeev" INDEX 01 03:01:39 TRACK 03 AUDIO TITLE "3 Pieces, Op. 2: III. Impromptu a la Mazur in C Major" PERFORMER "Dmitri Alexeev" INDEX 01 03:48:47 TRACK 04 AUDIO TITLE "12 Etudes, Op. 8: I. Etude in C-Sharp. Allegro" PERFORMER "Dmitri Alexeev" INDEX 01 05:37:07 TRACK 05 AUDIO TITLE "12 Etudes, Op. 8: II. Etude in F-Sharp Minor. A capriccio, con forza" PERFORMER "Dmitri Alexeev" INDEX 01 07:24:52 TRACK 06 AUDIO TITLE "12 Etudes, Op. 8: III. Etude in B Minor. Tempestoso" PERFORMER "Dmitri Alexeev" INDEX 01 09:33:55 TRACK 07 AUDIO TITLE "12 Etudes, Op. 8: IV. Etude in B Major. Piacevole" PERFORMER "Dmitri Alexeev" INDEX 01 11:42:54 TRACK 08 AUDIO TITLE "12 Etudes, Op. 8: V. Etude in E Major. Brioso" PERFORMER "Dmitri Alexeev" INDEX 01 13:36:02 TRACK 09 AUDIO TITLE "12 Etudes, Op. 8: VI. Etude in A Major. Con grazia" PERFORMER "Dmitri Alexeev" INDEX 01 16:31:05 TRACK 10 AUDIO TITLE "12 Etudes, Op. 8: VII. Etude in B-Flat Minor. Presto tenebroso, agitato" PERFORMER "Dmitri Alexeev" INDEX 01 18:17:13 TRACK 11 AUDIO TITLE "12 Etudes, Op. 8: VIII. Etude in A-Flat Major. Lento, tempo rubato" PERFORMER "Dmitri Alexeev" INDEX 01 20:20:25 TRACK 12 AUDIO TITLE "12 Etudes, Op. 8: IX. Etude in G-Sharp Minor. Alla balata" PERFORMER "Dmitri Alexeev" INDEX 01 24:17:69 TRACK 13 AUDIO TITLE "12 Etudes, Op. 8: X. Etude in D-Flat Major. Allegro" PERFORMER "Dmitri Alexeev" INDEX 01 29:25:26 TRACK 14 AUDIO TITLE "12 Etudes, Op. 8: XI. Etude in B-Flat Minor. Andante cantabile" PERFORMER "Dmitri Alexeev" INDEX 01 31:33:68 TRACK 15 AUDIO TITLE "12 Etudes, Op. 8: XII. Etude in D-Sharp Minor. Patetico" PERFORMER "Dmitri Alexeev" INDEX 01 36:18:48 TRACK 16 AUDIO TITLE "4 Preludes, Op. 22: I. Prelude in G-Sharp Minor. Andante" PERFORMER "Dmitri Alexeev" INDEX 01 39:09:18 TRACK 17 AUDIO TITLE "4 Preludes, Op. 22: II. Prelude in C-Sharp Minor. Andante" PERFORMER "Dmitri Alexeev" INDEX 01 40:34:53 TRACK 18 AUDIO TITLE "4 Preludes, Op. 22: III. Prelude in B Major. Allegretto" PERFORMER "Dmitri Alexeev" INDEX 01 41:34:43 TRACK 19 AUDIO TITLE "4 Preludes, Op. 22: IV. Prelude in B Minor. Andantino" PERFORMER "Dmitri Alexeev" INDEX 01 42:41:10 TRACK 20 AUDIO TITLE "8 Etudes, Op. 42: I. Etude in D-Flat Major. Presto" PERFORMER "Dmitri Alexeev" INDEX 01 44:06:08 TRACK 21 AUDIO TITLE "8 Etudes, Op. 42: II. Etude in F-Sharp Minor" PERFORMER "Dmitri Alexeev" INDEX 01 46:19:42 TRACK 22 AUDIO TITLE "8 Etudes, Op. 42: III. Etude in F-Sharp. Prestissimo" PERFORMER "Dmitri Alexeev" INDEX 01 47:27:21 TRACK 23 AUDIO TITLE "8 Etudes, Op. 42: IV. Etude in F-Sharp. Andante" PERFORMER "Dmitri Alexeev" INDEX 01 48:35:53 TRACK 24 AUDIO TITLE "8 Etudes, Op. 42: V. Etude in C-Sharp Minor. Affannato" PERFORMER "Dmitri Alexeev" INDEX 01 51:11:12 TRACK 25 AUDIO TITLE "8 Etudes, Op. 42: VI. Etude in D-Flat Major. Esaltato" PERFORMER "Dmitri Alexeev" INDEX 01 54:28:70 TRACK 26 AUDIO TITLE "8 Etudes, Op. 42: VII. Etude in F Minor. Agitato" PERFORMER "Dmitri Alexeev" INDEX 01 56:29:38 TRACK 27 AUDIO TITLE "8 Etudes, Op. 42: IX. Etude in E-Flat Major. Allegro" PERFORMER "Dmitri Alexeev" INDEX 01 57:49:00 TRACK 28 AUDIO TITLE "Quasi valse in F Major, Op. 47" PERFORMER "Dmitri Alexeev" INDEX 01 60:39:28 TRACK 29 AUDIO TITLE "3 Pieces, Op. 49: I. Etude in E-Flat Major" PERFORMER "Dmitri Alexeev" INDEX 01 62:28:42 TRACK 30 AUDIO TITLE "4 Pieces, Op. 56: IV. Etude" PERFORMER "Dmitri Alexeev" INDEX 01 63:18:36 TRACK 31 AUDIO TITLE "2 Poemes, Op. 69: I. Allegretto" PERFORMER "Dmitri Alexeev" INDEX 01 63:53:65 TRACK 32 AUDIO TITLE "2 Poemes, Op. 69: II. Allegretto" PERFORMER "Dmitri Alexeev" INDEX 01 65:58:36 TRACK 33 AUDIO TITLE "3 Etudes, Op. 65: I. Allegro fantastic" PERFORMER "Dmitri Alexeev" INDEX 01 67:32:55 TRACK 34 AUDIO TITLE "3 Etudes, Op. 65: II. Allegretto" PERFORMER "Dmitri Alexeev" INDEX 01 71:06:49 TRACK 35 AUDIO TITLE "3 Etudes, Op. 65: III. Molto vivace" PERFORMER "Dmitri Alexeev" INDEX 01 73:25:69
Scriabin - Complete Piano Sonatas (Dmitri Alexeev)



Показать сообщения:    

Текущее время: 05-Дек 05:28

Часовой пояс: UTC + 3


Вы не можете начинать темы
Вы не можете отвечать на сообщения
Вы не можете редактировать свои сообщения
Вы не можете удалять свои сообщения
Вы не можете голосовать в опросах
Вы не можете прикреплять файлы к сообщениям
Вы не можете скачивать файлы