(Classical, harpsichord) Johann Mattheson - Suites - Cristiano Holtz - 2006, FLAC (image+.cue) lossless


 

[Цитировать]

Johann Mattheson - Suites - Cristiano Holtz
Жанр: Classical, harpsichord
Год издания диска: 2006
Издатель (лейбл): Ramée
Номер по каталогу: RAM 0605
Дата записи: 2006
Аудиокодек: FLAC
Тип рипа: image+.cue
Битрейт аудио: lossless
Продолжительность: 74:35
Источник: собственный рип
Наличие сканов в содержимом раздачи: да
Треклист:
Johann Mattheson (1681-1764)
Suites
Pieces de Clavecin en Deux Volumes
Consistant des Ouvertures, Preludes, Fugues, Allemandes, Courentes, Sarabandes, Giques, et Aires.
Composées par J. Mattheson
Secr. 1714.
[1]-[7] Suite Premiere in D minor
[8]-[11] Suite Douzieme in F minor (extract)
[12] Suite Onzieme in C major (extract)
[13]-[15] Suite Sinquieme in C minor (extract)
[16]-[20] Suite Quattrieme in G minor (extract)
[21]-[27] Suite Sixieme in E flat major
[28]-[34] Suite Neufvieme in G minor
Исполнители:
Cristiano Holtz harpsichord

Лог создания рипа

Exact Audio Copy V1.1 from 23. June 2015
EAC extraction logfile from 25. October 2015, 17:07
Cristiano Holtz / Mattheson - Suites
Used drive : HL-DT-STDVDRAM GU70N Adapter: 1 ID: 0
Read mode : SecureUtilize accurate stream : YesDefeat audio cache : YesMake use of C2 pointers : No
Read offset correction : 48Overread into Lead-In and Lead-Out : NoFill up missing offset samples with silence : YesDelete leading and trailing silent blocks : NoNull samples used in CRC calculations : YesUsed interface : Native Win32 interface for Win NT & 2000
Used output format : User Defined EncoderSelected bitrate : 128 kBit/sQuality : HighAdd ID3 tag : NoCommand line compressor : C:\Program Files (x86)\Exact Audio Copy\Flac\flac.exeAdditional command line options : -V -8 -T "Date=%year%" -T "Genre=%genre%" %source%
TOC of the extracted CD
Track | Start | Length | Start sector | End sector --------------------------------------------------------- 1 | 0:00.00 | 1:00.70 | 0 | 4569 2 | 1:00.70 | 3:24.15 | 4570 | 19884 3 | 4:25.10 | 3:07.44 | 19885 | 33953 4 | 7:32.54 | 1:27.66 | 33954 | 40544 5 | 9:00.45 | 1:32.13 | 40545 | 47457 6 | 10:32.58 | 3:58.01 | 47458 | 65308 7 | 14:30.59 | 2:15.00 | 65309 | 75433 8 | 16:45.59 | 2:59.17 | 75434 | 88875 9 | 19:45.01 | 1:36.41 | 88876 | 96116 10 | 21:21.42 | 1:48.37 | 96117 | 104253 11 | 23:10.04 | 1:42.24 | 104254 | 111927 12 | 24:52.28 | 2:23.13 | 111928 | 122665 13 | 27:15.41 | 2:12.27 | 122666 | 132592 14 | 29:27.68 | 1:52.52 | 132593 | 141044 15 | 31:20.45 | 2:09.41 | 141045 | 150760 16 | 33:30.11 | 4:03.17 | 150761 | 169002 17 | 37:33.28 | 2:28.37 | 169003 | 180139 18 | 40:01.65 | 2:15.30 | 180140 | 190294 19 | 42:17.20 | 2:55.52 | 190295 | 203471 20 | 45:12.72 | 1:39.07 | 203472 | 210903 21 | 46:52.04 | 1:39.02 | 210904 | 218330 22 | 48:31.06 | 3:08.31 | 218331 | 232461 23 | 51:39.37 | 2:03.67 | 232462 | 241753 24 | 53:43.29 | 1:40.03 | 241754 | 249256 25 | 55:23.32 | 1:23.01 | 249257 | 255482 26 | 56:46.33 | 1:01.36 | 255483 | 260093 27 | 57:47.69 | 1:38.41 | 260094 | 267484 28 | 59:26.35 | 0:40.37 | 267485 | 270521 29 | 60:06.72 | 3:31.01 | 270522 | 286347 30 | 63:37.73 | 1:26.48 | 286348 | 292845 31 | 65:04.46 | 2:45.02 | 292846 | 305222 32 | 67:49.48 | 2:32.45 | 305223 | 316667 33 | 70:22.18 | 3:17.10 | 316668 | 331452 34 | 73:39.28 | 0:55.24 | 331453 | 335601
Range status and errors
Selected range
Filename C:\temp\Ram 0605 Mattheson - Suites\Mattheson - Suites.wav
Peak level 96.0 % Extraction speed 2.3 X Range quality 99.9 % Test CRC 18BD1D07 Copy CRC 18BD1D07 Copy OK
No errors occurred
AccurateRip summary
Track 1 accurately ripped (confidence 2) [9FEDCF08] (AR v2)Track 2 accurately ripped (confidence 2) [079107BF] (AR v2)Track 3 accurately ripped (confidence 2) [62DEDAC3] (AR v2)Track 4 accurately ripped (confidence 2) [87721051] (AR v2)Track 5 accurately ripped (confidence 2) [9E956A53] (AR v2)Track 6 accurately ripped (confidence 2) [9F18C476] (AR v2)Track 7 accurately ripped (confidence 2) [945BFC56] (AR v2)Track 8 accurately ripped (confidence 2) [FF9B9601] (AR v2)Track 9 accurately ripped (confidence 2) [7E037B80] (AR v2)Track 10 accurately ripped (confidence 2) [A3ED786B] (AR v2)Track 11 accurately ripped (confidence 2) [1C6B8C92] (AR v2)Track 12 accurately ripped (confidence 2) [7A33AD3C] (AR v2)Track 13 accurately ripped (confidence 2) [529B3EC3] (AR v2)Track 14 accurately ripped (confidence 2) [71492294] (AR v2)Track 15 accurately ripped (confidence 2) [995CB4FD] (AR v2)Track 16 accurately ripped (confidence 2) [364EB7C4] (AR v2)Track 17 accurately ripped (confidence 2) [33705A45] (AR v2)Track 18 accurately ripped (confidence 2) [E8241E5A] (AR v2)Track 19 accurately ripped (confidence 2) [89B7651E] (AR v2)Track 20 accurately ripped (confidence 2) [343AF0E5] (AR v2)Track 21 accurately ripped (confidence 2) [F5AA3FA3] (AR v2)Track 22 accurately ripped (confidence 2) [671276D9] (AR v2)Track 23 accurately ripped (confidence 2) [50205FCA] (AR v2)Track 24 accurately ripped (confidence 2) [080AD0A3] (AR v2)Track 25 accurately ripped (confidence 2) [54914E91] (AR v2)Track 26 accurately ripped (confidence 2) [9B46D904] (AR v2)Track 27 accurately ripped (confidence 2) [C759BB4C] (AR v2)Track 28 accurately ripped (confidence 2) [4B86CF41] (AR v2)Track 29 accurately ripped (confidence 2) [E369E24F] (AR v2)Track 30 accurately ripped (confidence 2) [FFE6C3D3] (AR v2)Track 31 accurately ripped (confidence 2) [9A951941] (AR v2)Track 32 accurately ripped (confidence 2) [7CF2EAD5] (AR v2)Track 33 accurately ripped (confidence 2) [87CB2BF9] (AR v2)Track 34 accurately ripped (confidence 2) [ABC70593] (AR v1)
All tracks accurately ripped
End of status report
==== Log checksum 39CE6BE186EE46A140D3E8A5CCF3CC74ECB531AAF9A9BE85E891631F97F62F47 ====



Показать сообщения:    

Текущее время: 08-Дек 21:09

Часовой пояс: UTC + 3


Вы не можете начинать темы
Вы не можете отвечать на сообщения
Вы не можете редактировать свои сообщения
Вы не можете удалять свои сообщения
Вы не можете голосовать в опросах
Вы не можете прикреплять файлы к сообщениям
Вы не можете скачивать файлы