(Piano Solo) Ludwig van Beethoven - The Great Piano Sonatas (Alfredo Perl) - 1996, FLAC (image+.cue) lossless


 

[Цитировать]

Alfredo Perl (Ludwig van Beethoven - The Great Piano Sonatas) Japan
Жанр: Piano Solo
Страна-производитель диска: Japan
Год издания диска: 1996
Издатель (лейбл): BMG
Номер по каталогу: BVCC 6031
Дата записи: 1993
Аудиокодек: FLAC
Тип рипа: image+.cue
Битрейт аудио: lossless
Продолжительность: 61:28
Источник: собственный рип
Наличие сканов в содержимом раздачи: да
Треклист:
Sonata No. 8
1. Grave - Allegro di molto e con brio
2. Adagio cantabile
3. Rondo. Allegro
Sonata No. 26
4. Das Lebewohl,.Adagio - Allegro
5. Abwesenheit. Andante espressivo
6. Wiedersehen. Vivacissimamente
Sonata No. 21
7. Allegro con brio
8. Introduzione. Adagio molto
9. Rondo. Allegretto moderato
Исполнители:
Alfredo Perl

Лог создания рипа

Exact Audio Copy V1.0 beta 6 from 9. April 2015
Отчёт EAC об извлечении, выполненном 26. октября 2015, 23:11
Alfredo Perl / Ludwig van Beethoven - The Great Piano Sonatas
Дисковод: MATSHITADVD-RAM UJ8B1AS Adapter: 1 ID: 0
Режим чтения : ДостоверностьИспользование точного потока : ДаОтключение кэша аудио : ДаИспользование указателей C2 : Нет
Коррекция смещения при чтении : 6Способность читать области Lead-in и Lead-out : НетЗаполнение пропущенных сэмплов тишиной : ДаУдаление блоков с тишиной в начале и конце : НетПри вычислениях CRC использовались нулевые сэмплы : ДаИнтерфейс : Встроенный Win32-интерфейс для Win NT/2000
Выходной формат : Пользовательский кодировщикВыбранный битрейт : 128 kBit/sКачество : ВысокийДобавление ID3-тега : НетУтилита сжатия : C:\Program Files (x86)\Exact Audio Copy\Flac\flac.exeДополнительные параметры : -V -8 -T "Date=%year%" -T "Genre=%genre%" %source%
TOC извлечённого CD
Трек | Старт | Длительность | Начальный сектор | Конечный сектор --------------------------------------------------------------------- 1 | 0:00.32 | 8:49.25 | 32 | 39731 2 | 8:49.57 | 5:59.68 | 39732 | 66724 3 | 14:49.50 | 4:46.70 | 66725 | 88244 4 | 19:36.45 | 7:07.62 | 88245 | 120331 5 | 26:44.32 | 3:42.50 | 120332 | 137031 6 | 30:27.07 | 5:57.73 | 137032 | 163879 7 | 36:25.05 | 10:50.52 | 163880 | 212681 8 | 47:15.57 | 3:49.33 | 212682 | 229889 9 | 51:05.15 | 10:23.17 | 229890 | 276631
Характеристики диапазона извлечения и сообщения об ошибках
Выбранный диапазон
Имя файла C:\Users\Alex\Downloads\1\Alfredo Perl - Ludwig van Beethoven - The Great Piano Sonatas.wav
Пиковый уровень 99.0 % Скорость извлечения 3.2 X Качество диапазона 100.0 % CRC теста A7D968CD CRC копии A7D968CD Копирование... OK
Ошибок не произошло
AccurateRip: сводка
Трек 1 : извлечено точно (доверие 2) [0C2C2695] (AR v2)Трек 2 : извлечено точно (доверие 2) [FE86F02F] (AR v2)Трек 3 : извлечено точно (доверие 2) [1CD3AD50] (AR v2)Трек 4 : извлечено точно (доверие 2) [A87A50FD] (AR v2)Трек 5 : извлечено точно (доверие 2) [14F5E3D8] (AR v2)Трек 6 : извлечено точно (доверие 2) [D1CBA100] (AR v2)Трек 7 : извлечено точно (доверие 2) [3E8D5D24] (AR v2)Трек 8 : извлечено точно (доверие 2) [1B5C16B8] (AR v2)Трек 9 : извлечено точно (доверие 2) [627AD5EC] (AR v2)
Все треки извлечены точно
Конец отчёта
==== Контрольная сумма отчёта 9AB3E918E77311F667ECCA348323C952687E485A82AD09F7BCB13FD2791F3782 ====

Фото




Показать сообщения:    

Текущее время: 07-Дек 13:41

Часовой пояс: UTC + 3


Вы не можете начинать темы
Вы не можете отвечать на сообщения
Вы не можете редактировать свои сообщения
Вы не можете удалять свои сообщения
Вы не можете голосовать в опросах
Вы не можете прикреплять файлы к сообщениям
Вы не можете скачивать файлы