Поля смерти / The Killing Fields (Роланд Жоффе / Roland Joffé) [1984, Великобритания, драма, военный, история, BDRemux 1080p] 3x DVO (Cinema Prestige, Total DVD, Екатеринбург Арт) + Sub (Rus, Ukr, Eng, Fre) + Original Eng


 

[Цитировать]

Поля смерти / The Killing Fields
-Страна: Великобритания
Студия: Enigma (First Casualty) Ltd., Goldcrest Films International, International Film Investors
Жанр: драма, военный, история
Год выпуска: 1984
Продолжительность: 02:21:56-Перевод 1: Профессиональный (двухголосый закадровый) Сinema Prestige
Перевод 2: Профессиональный (двухголосый закадровый) Total DVD
Перевод 3: Профессиональный (двухголосый закадровый) Екатеринбург Арт
Cубтитры: русские, украинские, английские, французские
Оригинальная аудиодорожка: английский-Режиссер: Роланд Жоффе / Roland Joffé-В ролях: Сэм Уотерстон, Хэйнг С. Нгор, Джон Малкович, Джулиан Сэндс, Крэйг Т. Нельсон, Сполдинг Грей, Билл Патерсон, Атол Фугард, Грэм Кеннеди, Кэтерин Крапум Чей, Оливер Пьерпаоли, Эдвард Энтеро Чей, Том Берд, Монирак Сисоват, Ламбул Дтанпхайбул, Айра Уилер, Дэвид Хенри, Патрик Мэлахайд, Нелл Кэмпбелл, Джоан Харрис, Джоанна Мерлин, Джей Барни, Марк Лонг, Саё Инаба, Моу Ленг, Чинсауре Сар, Хоут Минг Трэн, Тач Суон, Ниви Пэл-Описание: Корреспондент «Нью-Йорк Таймс» Сидней Шенберг пишет репортажи о гражданской войне между «красными кхмерами» и правительством. Его незаменимый помощник и друг — добрый, умный и интеллигентный Дит Пран. Как переводчику и проводнику ему нет равных. Когда «красные кхмеры» побеждают, американцы эвакуируются из Камбоджи. Дит Пран отправляет с ними семью, но сам остается с Сиднеем, чтобы помочь ему написать о перевороте. Иностранному журналисту Шенбергу удастся выбраться из страны, но положение Прана совсем иное: он местный и совершенно беззащитен перед революционным террором «красных кхмеров»…-Доп. информация: за диск спасибо HD TRACKER
за перевод Екатеринбург Арт спасибо JUSTKANT-Сэмпл | Kinopoisk 7.8 | Imdb 7,9-Тип релиза: BDRemux 1080p
Контейнер: MKV-Видео: AVC High@L4.1 | 1920x1080 [16:9] | 23998 kbps | 23.976 fps
Аудио 1: Russian AC-3 | 6 ch | 48.0 KHz | 384 Kbps [Сinema Prestige]
Аудио 2: Russian AC-3 | 6 ch | 48.0 KHz | 384 Kbps [Total DVD]
Аудио 3: Russian AC-3 | 2 ch | 48.0 KHz | 192 Kbps [Екатеринбург Арт]
Аудио 4: English DTS-HD MA | 2 ch | 48.0 KHz | 880 kbps | 16-bit (DTS Core: 2.0 / 48 kHz / 768 kbps / 16-bit) [Director's commentary]
Аудио 5: English DTS-HD MA | 6 ch | 48.0 KHz | 1896 kbps | 16-bit (DTS Core: 5.1 / 48 kHz / 1509 kbps / 16-bit)

MediaInfo

General
Unique ID : 229421784970836245246292736290824926183 (0xAC99074F832152E4AE169E0AC0B433E7)
Complete name : I:\The Killing Fields.1984.BDRemux.[1080p].mkv
Format : Matroska
Format version : Version 4 / Version 2
File size : 27.5 GiB
Duration : 2h 21mn
Overall bit rate mode : Variable
Overall bit rate : 27.7 Mbps
Movie name : _@dvokat_
Encoded date : UTC 2015-10-31 14:27:49
Writing application : mkvmerge v8.5.0 ('Vanishing Act') 32bit
Writing library : libebml v1.3.1 + libmatroska v1.4.2
DURATION : 02:21:52.352000000
NUMBER_OF_FRAMES : 266011
NUMBER_OF_BYTES : 204296448
_STATISTICS_WRITING_APP : mkvmerge v8.5.0 ('Vanishing Act') 32bit
_STATISTICS_WRITING_DATE_UTC : 2015-10-31 14:27:49
_STATISTICS_TAGS : BPS DURATION NUMBER_OF_FRAMES NUMBER_OF_BYTES
Video
ID : 1
Format : AVC
Format/Info : Advanced Video Codec
Format profile : High@L4.1
Format settings, CABAC : Yes
Format settings, ReFrames : 4 frames
Codec ID : V_MPEG4/ISO/AVC
Duration : 2h 21mn
Bit rate mode : Variable
Maximum bit rate : 33.0 Mbps
Width : 1 920 pixels
Height : 1 080 pixels
Display aspect ratio : 16:9
Frame rate mode : Constant
Frame rate : 23.976 fps
Standard : NTSC
Color space : YUV
Chroma subsampling : 4:2:0
Bit depth : 8 bits
Scan type : Progressive
Language : English
Default : Yes
Forced : No
Color range : Limited
Color primaries : BT.709
Transfer characteristics : BT.709
Matrix coefficients : BT.709
Audio #1
ID : 2
Format : AC-3
Format/Info : Audio Coding 3
Mode extension : CM (complete main)
Format settings, Endianness : Big
Codec ID : A_AC3
Duration : 2h 21mn
Bit rate mode : Constant
Bit rate : 384 Kbps
Channel(s) : 6 channels
Channel positions : Front: L C R, Side: L R, LFE
Sampling rate : 48.0 KHz
Compression mode : Lossy
Stream size : 390 MiB (1%)
Title : Сinema Prestige
Language : Russian
Default : Yes
Forced : No
Audio #2
ID : 3
Format : AC-3
Format/Info : Audio Coding 3
Mode extension : CM (complete main)
Format settings, Endianness : Big
Codec ID : A_AC3
Duration : 2h 21mn
Bit rate mode : Constant
Bit rate : 384 Kbps
Channel(s) : 6 channels
Channel positions : Front: L C R, Side: L R, LFE
Sampling rate : 48.0 KHz
Compression mode : Lossy
Stream size : 390 MiB (1%)
Title : Total DVD
Language : Russian
Default : No
Forced : No
Audio #3
ID : 4
Format : AC-3
Format/Info : Audio Coding 3
Mode extension : CM (complete main)
Format settings, Endianness : Big
Codec ID : A_AC3
Duration : 2h 21mn
Bit rate mode : Constant
Bit rate : 192 Kbps
Channel(s) : 2 channels
Channel positions : Front: L R
Sampling rate : 48.0 KHz
Compression mode : Lossy
Stream size : 195 MiB (1%)
Title : Екатеринбург Арт
Language : Russian
Default : No
Forced : No
Audio #4
ID : 5
Format : DTS
Format/Info : Digital Theater Systems
Format profile : MA / Core
Mode : 16
Format settings, Endianness : Big
Codec ID : A_DTS
Duration : 2h 21mn
Bit rate mode : Variable
Bit rate : Unknown / 768 Kbps
Channel(s) : 2 channels
Channel positions : Front: L R
Sampling rate : 48.0 KHz
Bit depth : 16 bits
Compression mode : Lossless / Lossy
Title : Director's commentary
Language : English
Default : No
Forced : No
Audio #5
ID : 6
Format : DTS
Format/Info : Digital Theater Systems
Format profile : MA / Core
Mode : 16
Format settings, Endianness : Big
Codec ID : A_DTS
Duration : 2h 21mn
Bit rate mode : Variable
Bit rate : Unknown / 1 509 Kbps
Channel(s) : 6 channels
Channel positions : Front: L C R, Side: L R, LFE
Sampling rate : 48.0 KHz
Bit depth : 16 bits
Compression mode : Lossless / Lossy
Title : English
Language : English
Default : No
Forced : No
Text #1
ID : 7
Format : UTF-8
Codec ID : S_TEXT/UTF8
Codec ID/Info : UTF-8 Plain Text
Title : Сinema Prestige
Language : Russian
Default : No
Forced : No
Text #2
ID : 8
Format : UTF-8
Codec ID : S_TEXT/UTF8
Codec ID/Info : UTF-8 Plain Text
Title : Total DVD
Language : Russian
Default : No
Forced : No
Text #3
ID : 9
Format : UTF-8
Codec ID : S_TEXT/UTF8
Codec ID/Info : UTF-8 Plain Text
Language : Ukrainian
Default : No
Forced : No
Text #4
ID : 10
Format : UTF-8
Codec ID : S_TEXT/UTF8
Codec ID/Info : UTF-8 Plain Text
Language : English
Default : No
Forced : No
Text #5
ID : 11
Format : UTF-8
Codec ID : S_TEXT/UTF8
Codec ID/Info : UTF-8 Plain Text
Language : French
Default : No
Forced : No
Menu
00:00:00.000 : en:Chapter 1
00:12:30.116 : en:Chapter 2
00:29:50.989 : en:Chapter 3
00:44:01.972 : en:Chapter 4
00:58:57.333 : en:Chapter 5
01:11:29.852 : en:Chapter 6
01:22:15.330 : en:Chapter 7
01:30:02.630 : en:Chapter 8
01:37:06.954 : en:Chapter 9
01:46:41.328 : en:Chapter 10
01:59:14.113 : en:Chapter 11
02:11:33.352 : en:Chapter 12

Скриншоты





Показать сообщения:    

Текущее время: 03-Дек 18:39

Часовой пояс: UTC + 3


Вы не можете начинать темы
Вы не можете отвечать на сообщения
Вы не можете редактировать свои сообщения
Вы не можете удалять свои сообщения
Вы не можете голосовать в опросах
Вы не можете прикреплять файлы к сообщениям
Вы не можете скачивать файлы