(Classical) Wolfgang Amadeus Mozart - Piano Concertos Nos. 18 & 22 - Ronald Brautigam, Die Kolner Akademie, Michael Alexander Willens - 2014, FLAC (image+.cue) lossless


Статистика раздачи [Обновить пиров]
Размер:  251 MB   |    Зарегистрирован:  1 год 1 месяц   |    Скачан:  0 раз

Полного источника не было: Никогда

Личеров:  5  [  0 KB/s  ]   Подробная статистика пиров
 
   
 
 
 

[Цитировать]

Wolfgang Amadeus Mozart - Piano Concertos Nos. 18 & 22 - Ronald Brautigam, Die Kölner Akademie, Michael Alexander Willens
Жанр: Classical
Страна-производитель диска: Sweden
Год издания диска: 2014
Издатель (лейбл): BIS
Номер по каталогу: BIS-SACD-2044
Дата записи: 2012
Аудиокодек: FLAC
Тип рипа: image+.cue
Битрейт аудио: lossless
Продолжительность: 60:03
Источник: собственный рип
Наличие сканов в содержимом раздачи: да
Треклист:
Wolfgang Amadeus Mozart (1756–91)
[1]-[3] Piano Concerto No. 18 in B flat major, K 456
[4]-[6] Piano Concerto No. 22 in E flat major, K 482
Cadenzas: W. A. Mozart (K 456); Ronald Brautigam (K 482)
Исполнители:
Ronald Brautigam fortepiano
Die Kölner Akademie
Michael Alexander Willens
conductor

Лог создания рипа

Exact Audio Copy V1.0 beta 3 from 29. August 2011
EAC extraction logfile from 15. March 2015, 14:57
Ronald Brautigam, Die Kolner Akademie, Michael Alexander Willens / Mozart - Piano Concertos Nos. 18 & 22
Used drive : HL-DT-STDVDRAM GU70N Adapter: 0 ID: 0
Read mode : SecureUtilize accurate stream : YesDefeat audio cache : YesMake use of C2 pointers : No
Read offset correction : 48Overread into Lead-In and Lead-Out : NoFill up missing offset samples with silence : YesDelete leading and trailing silent blocks : NoNull samples used in CRC calculations : YesUsed interface : Native Win32 interface for Win NT & 2000
Used output format : User Defined EncoderSelected bitrate : 128 kBit/sQuality : HighAdd ID3 tag : NoCommand line compressor : C:\Program Files (x86)\Exact Audio Copy\Flac\flac.exeAdditional command line options : -V -8 -T "Date=%year%" -T "Genre=%genre%" %source%
TOC of the extracted CD
Track | Start | Length | Start sector | End sector --------------------------------------------------------- 1 | 0:00.00 | 12:01.15 | 0 | 54089 2 | 12:01.15 | 9:24.30 | 54090 | 96419 3 | 21:25.45 | 7:37.14 | 96420 | 130708 4 | 29:02.59 | 12:23.12 | 130709 | 186445 5 | 41:25.71 | 7:38.56 | 186446 | 220851 6 | 49:04.52 | 10:58.24 | 220852 | 270225
Range status and errors
Selected range
Filename C:\temp\BIS-SACD-2044 - Mozart - Piano Concertos Nos. 18 & 22 - Brautigam\Mozart - Piano Concertos Nos. 18 & 22.wav
Peak level 97.8 % Extraction speed 2.2 X Range quality 100.0 % Test CRC 4FF25813 Copy CRC 4FF25813 Copy OK
No errors occurred
AccurateRip summary
Track 1 accurately ripped (confidence 5) [A06D3143] (AR v2)Track 2 accurately ripped (confidence 5) [FCCBCC25] (AR v2)Track 3 accurately ripped (confidence 5) [BF2931B7] (AR v2)Track 4 accurately ripped (confidence 5) [3B11CF9B] (AR v2)Track 5 accurately ripped (confidence 5) [4711149E] (AR v2)Track 6 accurately ripped (confidence 5) [F5BC679D] (AR v2)
All tracks accurately ripped
End of status report
==== Log checksum AA83C52E8C1435C0E0C7836A9565DEDEAF57A1C0D65F6D025E8CC4BCE5F5B32E ====
[teatrix.ru].t10222.torrent 
Торрент: Зарегистрирован [ 2015-11-01 20:51 ] · 3B59DC8D3EC13FB20F29605194F1932AD978D82D

Скачать .torrent

Скачать

41 KB

Статус: проверено
Скачан: 0 раз
Размер: 251 MB
terms.php



Быстрый ответ

Имя:

      
Для отправки сообщений необходимо включить JavaScript
Показать сообщения:    

Текущее время: 08-Дек 14:57

Часовой пояс: UTC + 3


Вы можете начинать темы
Вы можете отвечать на сообщения
Вы не можете редактировать свои сообщения
Вы не можете удалять свои сообщения
Вы не можете голосовать в опросах
Вы не можете прикреплять файлы к сообщениям
Вы можете скачивать файлы