(Classical, flute) Pipe Dreams: Serebrier, Izarra, Vine, Ginastera - Sharon Bezaly, Australian Chamber Orchestra, Richard Tognetti - 2012, FLAC (image+.cue) lossless


Статистика раздачи [Обновить пиров]
Размер:  239 MB   |    Зарегистрирован:  1 год 1 месяц   |    Скачан:  0 раз

Полного источника не было: Никогда

Личеров:  5  [  0 KB/s  ]   Подробная статистика пиров
 
   
 
 
 

[Цитировать]

Pipe Dreams: Serebrier, Izarra, Vine, Ginastera - Sharon Bezaly, Australian Chamber Orchestra, Richard Tognetti
Жанр: Classical, flute
Страна-производитель диска: Sweden
Год издания диска: 2012
Издатель (лейбл): BIS
Номер по каталогу: BIS-CD-1789
Дата записи: 2009
Аудиокодек: FLAC
Тип рипа: image+.cue
Битрейт аудио: lossless
Продолжительность: 60:23
Источник: собственный рип
Наличие сканов в содержимом раздачи: да
Треклист:
José Serebrier (b. 1938)
[1]-[5] Flute Concerto with Tango (2008)
Adina Izarra (b. 1959)
[6] Pitangus Sulphuratus (1987, rev. 2007)*
Carl Vine (b. 1954)
[7] Pipe Dreams (2003)
Alberto Ginastera (1916–83)
[8]-[10] Impresiones de la Puna (1934)
Исполнители:
Sharon Bezaly flute
Australian Chamber Orchestra
Richard Tognetti
artistic director & lead violin/ *conductor

Лог создания рипа

Exact Audio Copy V1.0 beta 3 from 29. August 2011
EAC extraction logfile from 14. March 2015, 16:37
Sharon Bezaly, Australian Chamber Orchestra, Richard Tognetti / Pipe Dreams
Used drive : HL-DT-STDVDRAM GU70N Adapter: 0 ID: 0
Read mode : SecureUtilize accurate stream : YesDefeat audio cache : YesMake use of C2 pointers : No
Read offset correction : 48Overread into Lead-In and Lead-Out : NoFill up missing offset samples with silence : YesDelete leading and trailing silent blocks : NoNull samples used in CRC calculations : YesUsed interface : Native Win32 interface for Win NT & 2000
Used output format : User Defined EncoderSelected bitrate : 128 kBit/sQuality : HighAdd ID3 tag : NoCommand line compressor : C:\Program Files (x86)\Exact Audio Copy\Flac\flac.exeAdditional command line options : -V -8 -T "Date=%year%" -T "Genre=%genre%" %source%
TOC of the extracted CD
Track | Start | Length | Start sector | End sector --------------------------------------------------------- 1 | 0:00.00 | 5:21.08 | 0 | 24082 2 | 5:21.08 | 3:53.65 | 24083 | 41622 3 | 9:14.73 | 5:50.09 | 41623 | 67881 4 | 15:05.07 | 2:33.15 | 67882 | 79371 5 | 17:38.22 | 4:49.31 | 79372 | 101077 6 | 22:27.53 | 15:20.43 | 101078 | 170120 7 | 37:48.21 | 15:08.60 | 170121 | 238280 8 | 52:57.06 | 2:23.71 | 238281 | 249076 9 | 55:21.02 | 1:49.13 | 249077 | 257264 10 | 57:10.15 | 3:12.65 | 257265 | 271729
Range status and errors
Selected range
Filename C:\temp\BIS-CD-1789 - Pipe Dreams - Sharon Bezaly\Pipe Dreams.wav
Peak level 100.0 % Extraction speed 5.1 X Range quality 100.0 % Test CRC 6AA240D2 Copy CRC 6AA240D2 Copy OK
No errors occurred
AccurateRip summary
Track 1 accurately ripped (confidence 3) [463EA6B5] (AR v2)Track 2 accurately ripped (confidence 3) [17BDE7C4] (AR v2)Track 3 accurately ripped (confidence 3) [4AB42A1B] (AR v2)Track 4 accurately ripped (confidence 3) [687967A9] (AR v2)Track 5 accurately ripped (confidence 3) [B0AFD253] (AR v2)Track 6 accurately ripped (confidence 3) [00B05EA6] (AR v2)Track 7 accurately ripped (confidence 3) [1591C37F] (AR v2)Track 8 accurately ripped (confidence 3) [88CEDDC5] (AR v2)Track 9 accurately ripped (confidence 3) [90B6A85E] (AR v2)Track 10 accurately ripped (confidence 3) [DEC27CDF] (AR v2)
All tracks accurately ripped
End of status report
==== Log checksum E4BE14755D74564F49E5BEFE6B36451CA15D176D911F0D677C302ADA7F48325C ====
[teatrix.ru].t10224.torrent 
Торрент: Зарегистрирован [ 2015-11-01 20:51 ] · 350F0A878230165293B829ACC83784E143A0C680

Скачать .torrent

Скачать

39 KB

Статус: проверено
Скачан: 0 раз
Размер: 239 MB
terms.php



Быстрый ответ

Имя:

      
Для отправки сообщений необходимо включить JavaScript
Показать сообщения:    

Текущее время: 06-Дек 15:09

Часовой пояс: UTC + 3


Вы можете начинать темы
Вы можете отвечать на сообщения
Вы не можете редактировать свои сообщения
Вы не можете удалять свои сообщения
Вы не можете голосовать в опросах
Вы не можете прикреплять файлы к сообщениям
Вы можете скачивать файлы