(Classical) The Trio Sonata in 18th-Century Italy: Albinoni, Bonporti, Bononcini, Gallo, Locatelli, Porpora, Sammartini, Tartini, Vivaldi - London Baroque - 2012, FLAC (image+.cue) lossless


 

[Цитировать]

The Trio Sonata in 18th-Century Italy: Albinoni, Bonporti, Bononcini, Gallo, Locatelli, Porpora, Sammartini, Tartini, Vivaldi - London Baroque
Жанр: Classical
Страна-производитель диска: Sweden
Год издания диска: 2012
Издатель (лейбл): BIS
Номер по каталогу: BIS-CD-2015
Дата записи: 2012
Аудиокодек: FLAC
Тип рипа: image+.cue
Битрейт аудио: lossless
Продолжительность: 77:14
Источник: собственный рип
Наличие сканов в содержимом раздачи: да
Треклист:
Tomaso Albinoni (1671–1750)
[1]-[4] Balletto in G major, Op. 3 No. 3 (1701)
Francesco Antonio Bonporti (1672–1749)
[5]-[7] Sonata in G minor, Op. 6 No. 7 (1705)
Antonio Vivaldi (1678–1741)
[8] Folia, Op. 1 No. 12 (1705)
Giovanni Bononcini (1670–1747)
[9]-[12] Sonata II from XII Sonatas for the Chamber (1732)
Nicola Porpora (1686–1768)
[13]-[16] Sonata, Op. 2 No. III (London 1736)
Giuseppe Sammartini (1695–1750)
[17]-[19] Sonata V from XII Sonate a due Violini, e Violoncello, e Cembalo, se piace, Opera Terza (Paris 1743)
Pietro Locatelli (1695–1764)
[20]-[24] Sonata in D major, Op. 8 No. 8 (1744)
Domenico Gallo (c. 1730– ?)
[25]-[27] Sonata No. 1 in G major (c. 1750?)
Giuseppe Tartini (1692–1770)
[28]-[30] Suonata a tre in D minor (undated manuscript)
Исполнители:
London Baroque
Ingrid Seifert violin
Richard Gwilt violin
Charles Medlam cello
Steven Devine harpsichord

Лог создания рипа

Exact Audio Copy V1.0 beta 3 from 29. August 2011
EAC extraction logfile from 19. March 2015, 8:42
London Baroque / The Trio Sonata in 18th-Century Italy
Used drive : HL-DT-STDVDRAM GU70N Adapter: 0 ID: 0
Read mode : SecureUtilize accurate stream : YesDefeat audio cache : YesMake use of C2 pointers : No
Read offset correction : 48Overread into Lead-In and Lead-Out : NoFill up missing offset samples with silence : YesDelete leading and trailing silent blocks : NoNull samples used in CRC calculations : YesUsed interface : Native Win32 interface for Win NT & 2000
Used output format : User Defined EncoderSelected bitrate : 128 kBit/sQuality : HighAdd ID3 tag : NoCommand line compressor : C:\Program Files (x86)\Exact Audio Copy\Flac\flac.exeAdditional command line options : -V -8 -T "Date=%year%" -T "Genre=%genre%" %source%
TOC of the extracted CD
Track | Start | Length | Start sector | End sector --------------------------------------------------------- 1 | 0:00.00 | 1:09.09 | 0 | 5183 2 | 1:09.09 | 1:42.28 | 5184 | 12861 3 | 2:51.37 | 1:53.03 | 12862 | 21339 4 | 4:44.40 | 0:44.23 | 21340 | 24662 5 | 5:28.63 | 1:51.27 | 24663 | 33014 6 | 7:20.15 | 1:28.15 | 33015 | 39629 7 | 8:48.30 | 1:39.71 | 39630 | 47125 8 | 10:28.26 | 9:24.51 | 47126 | 89476 9 | 19:53.02 | 2:32.54 | 89477 | 100930 10 | 22:25.56 | 1:35.41 | 100931 | 108096 11 | 24:01.22 | 1:37.54 | 108097 | 115425 12 | 25:39.01 | 2:27.17 | 115426 | 126467 13 | 28:06.18 | 2:12.67 | 126468 | 136434 14 | 30:19.10 | 2:48.57 | 136435 | 149091 15 | 33:07.67 | 2:19.63 | 149092 | 159579 16 | 35:27.55 | 3:42.02 | 159580 | 176231 17 | 39:09.57 | 1:54.07 | 176232 | 184788 18 | 41:03.64 | 2:58.54 | 184789 | 198192 19 | 44:02.43 | 4:39.74 | 198193 | 219191 20 | 48:42.42 | 2:54.29 | 219192 | 232270 21 | 51:36.71 | 4:07.58 | 232271 | 250853 22 | 55:44.54 | 2:56.00 | 250854 | 264053 23 | 58:40.54 | 1:48.32 | 264054 | 272185 24 | 60:29.11 | 1:33.16 | 272186 | 279176 25 | 62:02.27 | 2:37.16 | 279177 | 290967 26 | 64:39.43 | 1:48.50 | 290968 | 299117 27 | 66:28.18 | 1:27.62 | 299118 | 305704 28 | 67:56.05 | 2:58.72 | 305705 | 319126 29 | 70:55.02 | 3:54.19 | 319127 | 336695 30 | 74:49.21 | 2:24.54 | 336696 | 347549
Range status and errors
Selected range
Filename C:\temp\BIS-CD-2015 - The Trio Sonata in 18th-Century Italy (London Baroque)\The Trio Sonata in 18th-Century Italy.wav
Peak level 97.5 % Extraction speed 2.3 X Range quality 100.0 % Test CRC 19A612D8 Copy CRC 19A612D8 Copy OK
No errors occurred
AccurateRip summary
Track 1 not present in databaseTrack 2 not present in databaseTrack 3 not present in databaseTrack 4 not present in databaseTrack 5 not present in databaseTrack 6 not present in databaseTrack 7 not present in databaseTrack 8 not present in databaseTrack 9 not present in databaseTrack 10 not present in databaseTrack 11 not present in databaseTrack 12 not present in databaseTrack 13 not present in databaseTrack 14 not present in databaseTrack 15 not present in databaseTrack 16 not present in databaseTrack 17 not present in databaseTrack 18 not present in databaseTrack 19 not present in databaseTrack 20 not present in databaseTrack 21 not present in databaseTrack 22 not present in databaseTrack 23 not present in databaseTrack 24 not present in databaseTrack 25 not present in databaseTrack 26 not present in databaseTrack 27 not present in databaseTrack 28 not present in databaseTrack 29 not present in databaseTrack 30 not present in database
None of the tracks are present in the AccurateRip database
End of status report
==== Log checksum 5D435DE89777C4FE175918505B7552B34796A5B0CE211A5CD8B27DF63A818845 ====



Показать сообщения:    

Текущее время: 08-Дек 07:10

Часовой пояс: UTC + 3


Вы не можете начинать темы
Вы не можете отвечать на сообщения
Вы не можете редактировать свои сообщения
Вы не можете удалять свои сообщения
Вы не можете голосовать в опросах
Вы не можете прикреплять файлы к сообщениям
Вы не можете скачивать файлы