(Classical) Laurindo Almeida - Duets With Spanish Guitar. L. Almeida, guitar, S. Terri, mezzo-soprano, M. Ruderman, flute - FLAC (tracks+.cue) lossless


 

[Цитировать]

Laurindo Almeida - Duets With Spanish Guitar. L. Almeida, guitar, S. Terri, mezzo-soprano, M. Ruderman, flute
Жанр: Classical
Страна-производитель диска: ?
Год издания диска: ?
Издатель (лейбл): EMI
Дата записи: 1958-?
Аудиокодек: FLAC
Тип рипа: tracks+.cue
Битрейт аудио: lossless
Продолжительность: 54:29
Источник: скачано с
сайт-источник/ник/другое: nnm-club
Наличие сканов в содержимом раздачи: нет
Треклист:
Duets With Spanish Guitar
1. Ibert: Entr'acte
2. Villa-Lobos: Bachianas brasieleiras No. 5 - Aria
3. Desportes: Ronde
4. Ovalle: Azulco
5. Chopin: Prelude in E minor, Op. 28 No. 4
6. Almeida: O Cacador
7. Desportes: Pastorale joyeuse
8. Ovalle: Tres pontos de santo
9. Gossec: Tambourin
10. Henrique: Boi-Bumba
11. Fauri: Sicilienne
12. Barroso: Para niqar
13. Ravel: Piice en forme de habanera
14. Braga: Maracatz
15. Ravel: Pavane pour une Infante defunte
16. Mignone: Passarinho esta cantando
17. Ovalle-Bandeiro: Modinha
18. Tchaikovsky: Waltz from the Serenade for Strings
19. Falla: Cancisn from Siete canciones populares espaqolas
20. Falla: Farruca from The Three-Cornered Hat
Исполнители:
Laurindo Almeida, guitar
Salli Terri, mezzo-soprano
Martin Ruderman, flute

Лог создания рипа

Exact Audio Copy V1.0 beta 3 from 29. August 2011
EAC extraction logfile from 25. March 2012, 19:50
Laurindo Almeida / Duets With Spanish Guitar
Used drive : ASUS DRW-2014S1 Adapter: 0 ID: 0
Read mode : SecureUtilize accurate stream : YesDefeat audio cache : NoMake use of C2 pointers : No
Read offset correction : 6Overread into Lead-In and Lead-Out : NoFill up missing offset samples with silence : YesDelete leading and trailing silent blocks : NoNull samples used in CRC calculations : YesUsed interface : Native Win32 interface for Win NT & 2000Gap handling : Not detected, thus appended to previous track
Used output format : User Defined EncoderSelected bitrate : 32 kBit/sQuality : HighAdd ID3 tag : NoCommand line compressor : C:\Program Files\FLAC\flac.exeAdditional command line options : -V -8 -T "Date=%year%" -T "Genre=%genre%" %source%
TOC of the extracted CD
Track | Start | Length | Start sector | End sector --------------------------------------------------------- 1 | 0:00.32 | 3:15.50 | 32 | 14706 2 | 3:16.07 | 5:56.45 | 14707 | 41451 3 | 9:12.52 | 2:04.10 | 41452 | 50761 4 | 11:16.62 | 1:31.23 | 50762 | 57609 5 | 12:48.10 | 2:18.20 | 57610 | 67979 6 | 15:06.30 | 1:51.10 | 67980 | 76314 7 | 16:57.40 | 2:40.50 | 76315 | 88364 8 | 19:38.15 | 4:10.17 | 88365 | 107131 9 | 23:48.32 | 1:31.00 | 107132 | 113956 10 | 25:19.32 | 1:39.13 | 113957 | 121394 11 | 26:58.45 | 4:04.00 | 121395 | 139694 12 | 31:02.45 | 2:23.32 | 139695 | 150451 13 | 33:26.02 | 2:49.73 | 150452 | 163199 14 | 36:16.00 | 2:37.27 | 163200 | 175001 15 | 38:53.27 | 3:57.50 | 175002 | 192826 16 | 42:51.02 | 1:28.15 | 192827 | 199441 17 | 44:19.17 | 4:17.65 | 199442 | 218781 18 | 48:37.07 | 2:58.13 | 218782 | 232144 19 | 51:35.20 | 1:28.32 | 232145 | 238776 20 | 53:03.52 | 2:38.43 | 238777 | 250669
Track 1
Filename C:\Program Files\FLAC\(01) Ibert- Entr'acte.wav
Peak level 79.8 % Extraction speed 7.8 X Track quality 100.0 % Test CRC 4543F929 Copy CRC 4543F929 Accurately ripped (confidence 2) [CDBD25AA] (AR v1) Copy OK
Track 2
Filename C:\Program Files\FLAC\(02) Villa-Lobos- Bachianas brasieleiras No. 5 - Aria.wav
Peak level 60.3 % Extraction speed 9.6 X Track quality 100.0 % Test CRC 70712EB7 Copy CRC 70712EB7 Accurately ripped (confidence 2) [DDDF92D9] (AR v1) Copy OK
Track 3
Filename C:\Program Files\FLAC\(03) Desportes- Ronde.wav
Peak level 72.1 % Extraction speed 8.3 X Track quality 99.9 % Test CRC 4D8BEF98 Copy CRC 4D8BEF98 Accurately ripped (confidence 2) [58073C0B] (AR v1) Copy OK
Track 4
Filename C:\Program Files\FLAC\(04) Ovalle- Azulco.wav
Peak level 61.2 % Extraction speed 8.4 X Track quality 99.8 % Test CRC F8CDA773 Copy CRC F8CDA773 Accurately ripped (confidence 2) [6D3B3A43] (AR v1) Copy OK
Track 5
Filename C:\Program Files\FLAC\(05) Chopin- Prelude in E minor, Op. 28 No. 4.wav
Peak level 53.6 % Extraction speed 10.9 X Track quality 100.0 % Test CRC A390BBCF Copy CRC A390BBCF Accurately ripped (confidence 2) [5BDBEEFB] (AR v1) Copy OK
Track 6
Filename C:\Program Files\FLAC\(06) Almeida- O Cacador.wav
Peak level 70.7 % Extraction speed 11.0 X Track quality 100.0 % Test CRC F494E80B Copy CRC F494E80B Accurately ripped (confidence 2) [82224197] (AR v1) Copy OK
Track 7
Filename C:\Program Files\FLAC\(07) Desportes- Pastorale joyeuse.wav
Peak level 68.8 % Extraction speed 9.6 X Track quality 99.9 % Test CRC BAA267BB Copy CRC BAA267BB Accurately ripped (confidence 2) [5348E4B9] (AR v1) Copy OK
Track 8
Filename C:\Program Files\FLAC\(08) Ovalle- Tres pontos de santo.wav
Peak level 52.7 % Extraction speed 12.2 X Track quality 100.0 % Test CRC D856C4A3 Copy CRC D856C4A3 Accurately ripped (confidence 2) [2C673422] (AR v1) Copy OK
Track 9
Filename C:\Program Files\FLAC\(09) Gossec- Tambourin.wav
Peak level 63.8 % Extraction speed 12.1 X Track quality 100.0 % Test CRC A8646966 Copy CRC A8646966 Accurately ripped (confidence 2) [3C64DB73] (AR v1) Copy OK
Track 10
Filename C:\Program Files\FLAC\(10) Henrique- Boi-Bumba.wav
Peak level 69.8 % Extraction speed 12.5 X Track quality 100.0 % Test CRC A59DD5A1 Copy CRC A59DD5A1 Accurately ripped (confidence 2) [245B6E2D] (AR v1) Copy OK
Track 11
Filename C:\Program Files\FLAC\(11) Fauri- Sicilienne.wav
Peak level 50.4 % Extraction speed 11.0 X Track quality 99.9 % Test CRC F77AB088 Copy CRC F77AB088 Accurately ripped (confidence 2) [B5A59EC3] (AR v1) Copy OK
Track 12
Filename C:\Program Files\FLAC\(12) Barroso- Para niqar.wav
Peak level 50.5 % Extraction speed 11.1 X Track quality 99.9 % Test CRC F1D2AF38 Copy CRC F1D2AF38 Accurately ripped (confidence 2) [1F8AB510] (AR v1) Copy OK
Track 13
Filename C:\Program Files\FLAC\(13) Ravel- Piice en forme de habanera.wav
Peak level 69.0 % Extraction speed 11.4 X Track quality 99.9 % Test CRC E5A49A83 Copy CRC E5A49A83 Accurately ripped (confidence 2) [ACE8CA3E] (AR v1) Copy OK
Track 14
Filename C:\Program Files\FLAC\(14) Braga- Maracatz.wav
Peak level 49.6 % Extraction speed 11.7 X Track quality 99.9 % Test CRC 63CE9680 Copy CRC 63CE9680 Accurately ripped (confidence 2) [066B591A] (AR v1) Copy OK
Track 15
Filename C:\Program Files\FLAC\(15) Ravel- Pavane pour une Infante difunte.wav
Peak level 28.0 % Extraction speed 14.7 X Track quality 100.0 % Test CRC DA1EB79F Copy CRC DA1EB79F Accurately ripped (confidence 2) [C74E8339] (AR v1) Copy OK
Track 16
Filename C:\Program Files\FLAC\(16) Mignone- Passarinho esta cantando.wav
Peak level 62.8 % Extraction speed 13.1 X Track quality 100.0 % Test CRC 8BE6EE7A Copy CRC 8BE6EE7A Accurately ripped (confidence 2) [D1A510C6] (AR v1) Copy OK
Track 17
Filename C:\Program Files\FLAC\(17) Ovalle-Bandeiro- Modinha.wav
Peak level 42.1 % Extraction speed 15.4 X Track quality 100.0 % Test CRC EFF3EEE7 Copy CRC EFF3EEE7 Accurately ripped (confidence 2) [6F282204] (AR v1) Copy OK
Track 18
Filename C:\Program Files\FLAC\(18) Tchaikovsky- Waltz from the Serenade for Strings.wav
Peak level 40.4 % Extraction speed 15.2 X Track quality 100.0 % Test CRC DEAEF2B0 Copy CRC DEAEF2B0 Accurately ripped (confidence 2) [1B142039] (AR v1) Copy OK
Track 19
Filename C:\Program Files\FLAC\(19) Falla- Cancisn from Siete canciones populares espaqolas.wav
Peak level 38.3 % Extraction speed 15.4 X Track quality 100.0 % Test CRC 65DDD03C Copy CRC 65DDD03C Accurately ripped (confidence 2) [DC0EE5AD] (AR v1) Copy OK
Track 20
Filename C:\Program Files\FLAC\(20) Falla- Farruca from The Three-Cornered Hat.wav
Peak level 68.9 % Extraction speed 15.8 X Track quality 100.0 % Test CRC 8F232F9D Copy CRC 8F232F9D Accurately ripped (confidence 2) [921E637E] (AR v1) Copy OK
All tracks accurately ripped
No errors occurred
End of status report

Содержание индексной карты (.CUE)

REM GENRE "Chamber Music"REM DATE 1958REM DISCID 1B0D0E14REM COMMENT "ExactAudioCopy v1.0b3"PERFORMER "Laurindo Almeida"TITLE "Duets With Spanish Guitar"FILE "(01) Ibert- Entr'acte.wav" WAVE TRACK 01 AUDIO TITLE "Ibert: Entr'acte" PERFORMER "Laurindo Almeida" PREGAP 00:00:32 INDEX 01 00:00:00 TRACK 02 AUDIO TITLE "Villa-Lobos: Bachianas brasieleiras No. 5 - Aria" PERFORMER "Laurindo Almeida" INDEX 00 03:12:45FILE "(02) Villa-Lobos- Bachianas brasieleiras No. 5 - Aria.wav" WAVE INDEX 01 00:00:00 TRACK 03 AUDIO TITLE "Desportes: Ronde" PERFORMER "Laurindo Almeida" INDEX 00 05:52:73FILE "(03) Desportes- Ronde.wav" WAVE INDEX 01 00:00:00 TRACK 04 AUDIO TITLE "Ovalle: Azulco" PERFORMER "Laurindo Almeida" INDEX 00 02:01:45FILE "(04) Ovalle- Azulco.wav" WAVE INDEX 01 00:00:00 TRACK 05 AUDIO TITLE "Chopin: Prelude in E minor, Op. 28 No. 4" PERFORMER "Laurindo Almeida" INDEX 00 01:28:30FILE "(05) Chopin- Prelude in E minor, Op. 28 No. 4.wav" WAVE INDEX 01 00:00:00 TRACK 06 AUDIO TITLE "Almeida: O Cacador" PERFORMER "Laurindo Almeida" INDEX 00 02:13:67FILE "(06) Almeida- O Cacador.wav" WAVE INDEX 01 00:00:00 TRACK 07 AUDIO TITLE "Desportes: Pastorale joyeuse" PERFORMER "Laurindo Almeida" INDEX 00 01:47:17FILE "(07) Desportes- Pastorale joyeuse.wav" WAVE INDEX 01 00:00:00 TRACK 08 AUDIO TITLE "Ovalle: Tres pontos de santo" PERFORMER "Laurindo Almeida" INDEX 00 02:36:37FILE "(08) Ovalle- Tres pontos de santo.wav" WAVE INDEX 01 00:00:00 TRACK 09 AUDIO TITLE "Gossec: Tambourin" PERFORMER "Laurindo Almeida" INDEX 00 04:06:05FILE "(09) Gossec- Tambourin.wav" WAVE INDEX 01 00:00:00 TRACK 10 AUDIO TITLE "Henrique: Boi-Bumba" PERFORMER "Laurindo Almeida" INDEX 00 01:26:63FILE "(10) Henrique- Boi-Bumba.wav" WAVE INDEX 01 00:00:00 TRACK 11 AUDIO TITLE "Fauri: Sicilienne" PERFORMER "Laurindo Almeida" INDEX 00 01:35:30FILE "(11) Fauri- Sicilienne.wav" WAVE INDEX 01 00:00:00 TRACK 12 AUDIO TITLE "Barroso: Para niqar" PERFORMER "Laurindo Almeida" INDEX 00 04:00:20FILE "(12) Barroso- Para niqar.wav" WAVE INDEX 01 00:00:00 TRACK 13 AUDIO TITLE "Ravel: Piice en forme de habanera" PERFORMER "Laurindo Almeida" INDEX 00 02:20:15FILE "(13) Ravel- Piice en forme de habanera.wav" WAVE INDEX 01 00:00:00 TRACK 14 AUDIO TITLE "Braga: Maracatz" PERFORMER "Laurindo Almeida" INDEX 00 02:45:55FILE "(14) Braga- Maracatz.wav" WAVE INDEX 01 00:00:00 TRACK 15 AUDIO TITLE "Ravel: Pavane pour une Infante difunte" PERFORMER "Laurindo Almeida" INDEX 00 02:33:52FILE "(15) Ravel- Pavane pour une Infante difunte.wav" WAVE INDEX 01 00:00:00 TRACK 16 AUDIO TITLE "Mignone: Passarinho esta cantando" PERFORMER "Laurindo Almeida" INDEX 00 03:53:10FILE "(16) Mignone- Passarinho esta cantando.wav" WAVE INDEX 01 00:00:00 TRACK 17 AUDIO TITLE "Ovalle-Bandeiro: Modinha" PERFORMER "Laurindo Almeida" INDEX 00 01:23:50FILE "(17) Ovalle-Bandeiro- Modinha.wav" WAVE INDEX 01 00:00:00 TRACK 18 AUDIO TITLE "Tchaikovsky: Waltz from the Serenade for Strings" PERFORMER "Laurindo Almeida" INDEX 00 04:13:35FILE "(18) Tchaikovsky- Waltz from the Serenade for Strings.wav" WAVE INDEX 01 00:00:00 TRACK 19 AUDIO TITLE "Falla: Cancisn from Siete canciones populares espaqolas" PERFORMER "Laurindo Almeida" INDEX 00 02:53:55FILE "(19) Falla- Cancisn from Siete canciones populares espaqolas.wav" WAVE INDEX 01 00:00:00 TRACK 20 AUDIO TITLE "Falla: Farruca from The Three-Cornered Hat" PERFORMER "Laurindo Almeida" INDEX 00 01:24:47FILE "(20) Falla- Farruca from The Three-Cornered Hat.wav" WAVE INDEX 01 00:00:00

Лог проверки качества

-----------------------
DON'T MODIFY THIS FILE
-----------------------
PERFORMER: auCDtect Task Manager, ver. 1.5.1RC6 build 1.5.1.7Copyright (c) 2008-2010 y-soft. All rights reservedhttp://y-soft.org
ANALYZER: auCDtect: CD records authenticity detector, version 0.8.2Copyright (c) 2004 Oleg Berngardt. All rights reserved.Copyright (c) 2004 Alexander Djourik. All rights reserved.
FILE: (20) Falla- Farruca from The Three-Cornered Hat.flac Size: 10098700 Hash: 4A094A7B5AE41077D6E68C9BC84F4421 Accuracy: -m0 Conclusion: CDDA 100% Signature: EEA135D3861200E3B13005BE2DE46E47050E1707FILE: (19) Falla- Cancisn from Siete canciones populares espaqolas.flac Size: 4907012 Hash: B417F38CAF196D3A647FBC623E53B488 Accuracy: -m0 Conclusion: CDDA 99% Signature: C6E2C46853FB637CCAFECAEAEEDA0407A1384E89FILE: (18) Tchaikovsky- Waltz from the Serenade for Strings.flac Size: 10415379 Hash: D4C2A2C400D9507854770E206DEC5826 Accuracy: -m0 Conclusion: CDDA 100% Signature: 72B233913DD4C76937946D411B746014E0D84FAFFILE: (17) Ovalle-Bandeiro- Modinha.flac Size: 15404122 Hash: 67307544AC04D58C8C7139E65EA86B74 Accuracy: -m0 Conclusion: CDDA 100% Signature: 93DD510A4252F7E2FFD6BA40E328A1231DB90CA3FILE: (16) Mignone- Passarinho esta cantando.flac Size: 6990876 Hash: F0BD60DCDABCDE0FE67F9740B42E3EE7 Accuracy: -m0 Conclusion: CDDA 100% Signature: F1361215AC8132CFBED0759F5F3DB78442D1AA58FILE: (15) Ravel- Pavane pour une Infante difunte.flac Size: 9369912 Hash: 4925B7BAE882CCEBE8E5FB394DCBD8E6 Accuracy: -m0 Conclusion: CDDA 100% Signature: 6E5D35F2D86F2F11C0567FDF2AA760D6758082F9FILE: (14) Braga- Maracatz.flac Size: 10785110 Hash: 65A44C9EA89F77B55B1530C269BF7E33 Accuracy: -m0 Conclusion: CDDA 100% Signature: 8E99D52ECFC5C347CC73983479B90093B1D5B8D6FILE: (13) Ravel- Piice en forme de habanera.flac Size: 11523397 Hash: 8AEA70DA466EEC408863F0FC6FFFAE35 Accuracy: -m0 Conclusion: CDDA 100% Signature: C938D78EC6B7A67DE06A19DBA7261F55D5E62053FILE: (12) Barroso- Para niqar.flac Size: 9537928 Hash: 5E5F52E0D8C80091B4238A79E0420447 Accuracy: -m0 Conclusion: CDDA 100% Signature: E3DA50697ABB455564E3D56FA5B3B45DC29ED048FILE: (11) Fauri- Sicilienne.flac Size: 16239077 Hash: B7013DE7817F8A4DE8E4298A73CA5943 Accuracy: -m0 Conclusion: CDDA 100% Signature: 2CD9FDE937CCCA5C66BE01D2016989A338BA9C63FILE: (10) Henrique- Boi-Bumba.flac Size: 7511619 Hash: F8B15CF622D0B52515F661486933D985 Accuracy: -m0 Conclusion: CDDA 99% Signature: 77D85A4D343E01FD70226489B3E54D9473F7285DFILE: (09) Gossec- Tambourin.flac Size: 6154095 Hash: D6603583D42BA62579BAAFC7EC486CBF Accuracy: -m0 Conclusion: CDDA 100% Signature: 46A58C4C7EAA38A3047F44AD23F08EEADDB7F7D1FILE: (08) Ovalle- Tres pontos de santo.flac Size: 16711876 Hash: E8CD5C810B626C79F746A59A13F888C6 Accuracy: -m0 Conclusion: CDDA 100% Signature: 1C773C1941EA8891C0C3CE83565EAFE7D1E41149FILE: (07) Desportes- Pastorale joyeuse.flac Size: 10962252 Hash: 5EDE5F3F98D82854569F633C15B5C4E5 Accuracy: -m0 Conclusion: CDDA 100% Signature: EC7BD024FF78F1F496677E52B43FF2CC86FB3397FILE: (06) Almeida- O Cacador.flac Size: 8371058 Hash: 8C757D3E806E25105B83646EF1C3EE82 Accuracy: -m0 Conclusion: CDDA 100% Signature: 763B07ED6077A583C9DFF5D092788C7069309AA8FILE: (05) Chopin- Prelude in E minor, Op. 28 No. 4.flac Size: 9439146 Hash: 99ABE3AEF7E9EC5524AC8CF55640BF21 Accuracy: -m0 Conclusion: CDDA 100% Signature: E63AB6D3D1B5E0ABD05241FD97454A1364BF997CFILE: (04) Ovalle- Azulco.flac Size: 6471355 Hash: 382561C553ACCF8C69DBAFE274C671AF Accuracy: -m0 Conclusion: CDDA 100% Signature: E95ABA2B392F1F4219CA2EBB76D65781287E3C03FILE: (03) Desportes- Ronde.flac Size: 9128439 Hash: 9519B380C05ADA7259E1DF2C90B5E31D Accuracy: -m0 Conclusion: CDDA 100% Signature: 5066424B84DAC23727E8CA9960D8E6E343A8C95FFILE: (02) Villa-Lobos- Bachianas brasieleiras No. 5 - Aria.flac Size: 24864448 Hash: 95482FAB2A02B25E0869AC5ED64B838F Accuracy: -m0 Conclusion: CDDA 100% Signature: BDC92A435C5E818F8409DB65059EB475E117C044FILE: (01) Ibert- Entr'acte.flac Size: 13960396 Hash: BDB14D3BA0DBFF93E7E0B41900B664AE Accuracy: -m0 Conclusion: CDDA 100% Signature: F654D401A11615BD514815D71251F9703FB1AE12



Показать сообщения:    

Текущее время: 08-Дек 19:04

Часовой пояс: UTC + 3


Вы не можете начинать темы
Вы не можете отвечать на сообщения
Вы не можете редактировать свои сообщения
Вы не можете удалять свои сообщения
Вы не можете голосовать в опросах
Вы не можете прикреплять файлы к сообщениям
Вы не можете скачивать файлы