(Score) Перебежчик / Подкидыш || The Changeling (by Rick Wilkins, Ken Wannberg & Howard Blake) - 2007 (1980), FLAC (image+.cue), lossless


Статистика раздачи [Обновить пиров]
Размер:  454 MB   |    Зарегистрирован:  1 год 2 месяца   |    Скачан:  0 раз

Полного источника не было: Никогда

Личеров:  5  [  0 KB/s  ]   Подробная статистика пиров
 
   
 
 
 

[Цитировать]

Перебежчик / Подкидыш || The Changeling
Жанр: Score
Композитор: Rick Wilkins, Ken Wannberg & Howard Blake
Год выпуска диска: 2007
Год выпуска фильма: 1980
Производитель диска: USA
Издатель (лейбл): Percepto Records
Номер по каталогу: PERCEPTO-006XE
Аудиокодек: FLAC (*.flac)
Тип рипа: image+.cue
Битрейт аудио: lossless
Продолжительность: 65.44; 18.08
Источник: собственный рип
Наличие сканов в содержимом раздачи: да (600 dpi)
Треклист

Disc 1

01. Main Titles [02:32.51]
02. Arrival At The House [01:48.38]
03. Piano Source #1 [01:09.41]
04. Piano Source #2 [00:12.04]
05. First Chill [01:32.65]
06. The Door Opens [00:19.54]
07. Music Box Theme [02:06.61]
08. Country Ride [01:05.69]
09. Bathtub Reflections [03:05.28]
10. Finding The Secret Door [03:33.62]
11. Up Into The Attic [02:47.52]
12. Music Box Theme [01:47.14]
13. The Wheelchair [00:24.51]
14. Microfilm / Cemetary [01:29.06]
15. Ball Over The Bridge / It's Back! [03:16.68]
16. Seance / Talk To Us! [07:15.05]
17. Murder Flashback [03:39.64]
18. Wheelchair / Carmichael Tower [00:59.42]
19. Carmichael Reflects [00:33.00]
20. House On The Lake [01:54.67]
21. Breaking Into The House [00:53.45]
22. Face On The Bedroom Floor [02:01.24]
23. The Chain Appears [03:48.24]
24. All The Doors Shut [01:12.19]
25. Mirror, Mirror [01:13.36]
26. Russell Goes To See Carmichael [02:00.55]
27. The Attic Calls Claire [03:53.66]
28. Finale / Resolution [05:55.31]
29. Music Box / End Credits [03:09.04]

Отчёт EAC

Exact Audio Copy V1.0 beta 3 from 29. August 2011
EAC extraction logfile from 13. October 2013, 13:33
Rick Wilkins, Kenneth Wannberg & Howard Blake / The Changeling (Disc 1)
Used drive : TSSTcorpCDDVDW SH-S202H Adapter: 0 ID: 0
Read mode : SecureUtilize accurate stream : YesDefeat audio cache : YesMake use of C2 pointers : No
Read offset correction : 6Overread into Lead-In and Lead-Out : NoFill up missing offset samples with silence : YesDelete leading and trailing silent blocks : NoNull samples used in CRC calculations : YesUsed interface : Native Win32 interface for Win NT & 2000
Used output format : Internal WAV RoutinesSample format : 44.100 Hz; 16 Bit; Stereo
TOC of the extracted CD
Track | Start | Length | Start sector | End sector --------------------------------------------------------- 1 | 0:00.00 | 2:32.51 | 0 | 11450 2 | 2:32.51 | 1:48.38 | 11451 | 19588 3 | 4:21.14 | 1:09.41 | 19589 | 24804 4 | 5:30.55 | 0:12.04 | 24805 | 25708 5 | 5:42.59 | 1:32.65 | 25709 | 32673 6 | 7:15.49 | 0:19.54 | 32674 | 34152 7 | 7:35.28 | 2:06.61 | 34153 | 43663 8 | 9:42.14 | 1:05.69 | 43664 | 48607 9 | 10:48.08 | 3:05.28 | 48608 | 62510 10 | 13:53.36 | 3:33.62 | 62511 | 78547 11 | 17:27.23 | 2:47.52 | 78548 | 91124 12 | 20:15.00 | 1:47.14 | 91125 | 99163 13 | 22:02.14 | 0:24.51 | 99164 | 101014 14 | 22:26.65 | 1:29.06 | 101015 | 107695 15 | 23:55.71 | 3:16.68 | 107696 | 122463 16 | 27:12.64 | 7:15.05 | 122464 | 155093 17 | 34:27.69 | 3:39.64 | 155094 | 171582 18 | 38:07.58 | 0:59.42 | 171583 | 176049 19 | 39:07.25 | 0:33.00 | 176050 | 178524 20 | 39:40.25 | 1:54.67 | 178525 | 187141 21 | 41:35.17 | 0:53.45 | 187142 | 191161 22 | 42:28.62 | 2:01.24 | 191162 | 200260 23 | 44:30.11 | 3:48.24 | 200261 | 217384 24 | 48:18.35 | 1:12.19 | 217385 | 222803 25 | 49:30.54 | 1:13.36 | 222804 | 228314 26 | 50:44.15 | 2:00.55 | 228315 | 237369 27 | 52:44.70 | 3:53.66 | 237370 | 254910 28 | 56:38.61 | 5:55.31 | 254911 | 281566 29 | 62:34.17 | 3:09.04 | 281567 | 295745
Range status and errors
Selected range
Filename D:\Rick Wilkins, Kenneth Wannberg & Howard Blake - The Changeling\Rick Wilkins, Kenneth Wannberg & Howard Blake - The Changeling (Disc 1).wav
Peak level 99.4 % Extraction speed 7.4 X Range quality 100.0 % Test CRC 56B0C275 Copy CRC 56B0C275 Copy OK
No errors occurred
AccurateRip summary
Track 1 cannot be verified as accurate (confidence 4) [4DF9D8CB], AccurateRip returned [B65C972A] (AR v2)Track 2 cannot be verified as accurate (confidence 4) [4FE37663], AccurateRip returned [07031EF2] (AR v2)Track 3 cannot be verified as accurate (confidence 4) [D69121D5], AccurateRip returned [555CDC6A] (AR v2)Track 4 cannot be verified as accurate (confidence 4) [E953A8C7], AccurateRip returned [63607D7A] (AR v2)Track 5 cannot be verified as accurate (confidence 4) [3F7B3A94], AccurateRip returned [3278D3E1] (AR v2)Track 6 cannot be verified as accurate (confidence 4) [8BC52399], AccurateRip returned [FF37931B] (AR v2)Track 7 cannot be verified as accurate (confidence 4) [A3B4E74D], AccurateRip returned [B7ACD6CA] (AR v2)Track 8 cannot be verified as accurate (confidence 4) [6C416B89], AccurateRip returned [0C18917C] (AR v2)Track 9 cannot be verified as accurate (confidence 4) [0F387D79], AccurateRip returned [E8657584] (AR v2)Track 10 cannot be verified as accurate (confidence 4) [C6E0B077], AccurateRip returned [A0552828] (AR v2)Track 11 cannot be verified as accurate (confidence 4) [9091B624], AccurateRip returned [D709350E] (AR v2)Track 12 cannot be verified as accurate (confidence 4) [A139EC8F], AccurateRip returned [7E39C85C] (AR v2)Track 13 cannot be verified as accurate (confidence 4) [67C6D992], AccurateRip returned [5E374A9C] (AR v2)Track 14 cannot be verified as accurate (confidence 4) [363F7089], AccurateRip returned [01E1EB57] (AR v2)Track 15 cannot be verified as accurate (confidence 4) [B4B3F916], AccurateRip returned [B298A074] (AR v2)Track 16 cannot be verified as accurate (confidence 4) [A068F633], AccurateRip returned [67029A16] (AR v2)Track 17 cannot be verified as accurate (confidence 4) [889B5853], AccurateRip returned [50D33D7C] (AR v2)Track 18 cannot be verified as accurate (confidence 4) [F47CFE08], AccurateRip returned [0FBBDF62] (AR v2)Track 19 cannot be verified as accurate (confidence 4) [14C71D53], AccurateRip returned [A3093151] (AR v2)Track 20 cannot be verified as accurate (confidence 4) [ED7E3519], AccurateRip returned [AE93DA44] (AR v2)Track 21 cannot be verified as accurate (confidence 4) [267473A9], AccurateRip returned [94E8B30F] (AR v2)Track 22 cannot be verified as accurate (confidence 4) [B84CBF20], AccurateRip returned [49C685EA] (AR v2)Track 23 cannot be verified as accurate (confidence 4) [D1D591A5], AccurateRip returned [2E045E98] (AR v2)Track 24 cannot be verified as accurate (confidence 4) [195413B2], AccurateRip returned [1DE82460] (AR v2)Track 25 cannot be verified as accurate (confidence 4) [63B23612], AccurateRip returned [3B91ABA7] (AR v2)Track 26 cannot be verified as accurate (confidence 4) [12073FEA], AccurateRip returned [01283E48] (AR v2)Track 27 cannot be verified as accurate (confidence 4) [D6A21150], AccurateRip returned [3F1E4F9D] (AR v2)Track 28 cannot be verified as accurate (confidence 4) [2D69F6F4], AccurateRip returned [DBAD1E0D] (AR v2)Track 29 cannot be verified as accurate (confidence 4) [F3CB948F], AccurateRip returned [4B73BEFD] (AR v2)
No tracks could be verified as accurateYou may have a different pressing from the one(s) in the database
End of status report
==== Log checksum 1FBDB1C24D725051ED4E0F2F88EF483C088792483DB74C7965F5E3A5EDB8097F ====

Disc 2

01. The Seance (Alternate) [07:11.37]
02. Carmichael's Demise (Alternate) [03:45.56]
03. End Credits (Alternate) [02:33.07]
04. Unknown Cue [01:49.39]
05. String Quartet #1 (Unused) [00:46.53]
06. String Quartet #2 (Unused) [01:15.71]
07. Solo Celeste [00:44.38]

Отчёт EAC

Exact Audio Copy V1.0 beta 3 from 29. August 2011
EAC extraction logfile from 13. October 2013, 13:50
Rick Wilkins, Kenneth Wannberg & Howard Blake / The Changeling (Disc 2)
Used drive : TSSTcorpCDDVDW SH-S202H Adapter: 0 ID: 0
Read mode : SecureUtilize accurate stream : YesDefeat audio cache : YesMake use of C2 pointers : No
Read offset correction : 6Overread into Lead-In and Lead-Out : NoFill up missing offset samples with silence : YesDelete leading and trailing silent blocks : NoNull samples used in CRC calculations : YesUsed interface : Native Win32 interface for Win NT & 2000
Used output format : Internal WAV RoutinesSample format : 44.100 Hz; 16 Bit; Stereo
TOC of the extracted CD
Track | Start | Length | Start sector | End sector --------------------------------------------------------- 1 | 0:00.00 | 7:11.37 | 0 | 32361 2 | 7:11.37 | 3:45.56 | 32362 | 49292 3 | 10:57.18 | 2:33.07 | 49293 | 60774 4 | 13:30.25 | 1:49.39 | 60775 | 68988 5 | 15:19.64 | 0:46.53 | 68989 | 72491 6 | 16:06.42 | 1:15.71 | 72492 | 78187 7 | 17:22.38 | 0:44.38 | 78188 | 81525
Range status and errors
Selected range
Filename D:\Rick Wilkins, Kenneth Wannberg & Howard Blake - The Changeling\Rick Wilkins, Kenneth Wannberg & Howard Blake - The Changeling (Disc 2).wav
Peak level 96.9 % Extraction speed 2.4 X Range quality 100.0 % Test CRC D52697F6 Copy CRC D52697F6 Copy OK
No errors occurred
AccurateRip summary
Track 1 cannot be verified as accurate (confidence 4) [6AD31BFB], AccurateRip returned [D63F49A7] (AR v2)Track 2 cannot be verified as accurate (confidence 4) [DD3307B8], AccurateRip returned [86C8E6CB] (AR v2)Track 3 cannot be verified as accurate (confidence 4) [7E522747], AccurateRip returned [EA02AC04] (AR v2)Track 4 cannot be verified as accurate (confidence 4) [A5BA9D94], AccurateRip returned [2DABAD32] (AR v2)Track 5 cannot be verified as accurate (confidence 4) [D3835E01], AccurateRip returned [889E1F1B] (AR v2)Track 6 cannot be verified as accurate (confidence 4) [D9289E8D], AccurateRip returned [13F4F7AB] (AR v2)Track 7 cannot be verified as accurate (confidence 4) [2BE4AE27], AccurateRip returned [4B415283] (AR v2)
No tracks could be verified as accurateYou may have a different pressing from the one(s) in the database
End of status report
==== Log checksum 59944621C4197F58C54B8EA45F76D7DD5006BA95A8D9A2F220D90AFA3280D447 ====

Информация об альбоме от Composer's fan

У каждого есть свой любимый фильм ужасов. Сегодня я представляю Вам музыку к моему самому любимому фильму этого жанра.
Вообще, лично я считаю, что в хорошем ужастике и не должно быть гор расчлененных малолеток, кучи зомби, психопатов, которых невозможно убить, вечных скримеров... По-настоящему человека можно напугать и без этого.
Фильм Перебежчик (почему-то у нас первым вариантом названия считается именно это, хотя, на мой взгляд, Подкидыш/Подменыш будет все же вернее) относится именно к таким фильмам - вроде бы простая история о забытом убийстве и (пусть и запоздалом, но все-таки свершившемся) возмездии, с небольшой долей потусторонних сил. Но, черт возьми, пугаешься тут не меньше, чем, скажем, смотря на очередные похождения Фредди или Джейсона!
Сюжет, как уже упоминалось ранее, связан с расследованием старого преступления. Перед нами история композитора, в один момент потерявшего жену и дочь, и который решает переехать в другой город, чтобы вновь начать писать музыку. Но старый дом, который он снимает, преподносит свои сюрпризы, и вскоре герой понимает, что с домом что-то не так...
Дальнейшее изложение сюжета абсолютно противопоказано, особенно для тех, кто фильм не смотрел (в который раз уже намекаю - ПОСМОТРИТЕ, не пожалеете!).
Испуг достигается не только за счет потусторонней тематики (ведь призраки в старом доме это всегда страшно!), но и за счет актерской игры (Джордж С. Скотт здесь просто великолепен!) и постепенного нагнетания обстановки - картинка становится все мрачнее и мрачнее, при этом внешне, вроде бы и не меняясь! Важнейшую роль в этом играет музыка. Вроде бы она тоже идет незаметным фоном, ничуть не выделяясь (кроме тех сцен без слов, где она просто обязана звучать - трек Country Ride с первого диска), и не пугая нас по принципу "БУ! - Сейчас выскочит монстр!" каждые пять минут (такие момент, конечно есть, но они очень дозированы и звучат там, где они действительно нужны). Но постепенно мотивы становятся мрачнее, и даже в нестрашные моменты музыка начинает пугает нас (хотя, вроде бы, повода для страха и нет!).-Музыкальная история очень интересна. В начале композитором был нанят Говард Блейк, написавший тему музыкальной шкатулки, одну из главных тем фильма. Но потом, в силу разных причин (об официальной версии можно прочитать в буклете) он из проекта выбыл, а на его место был приглашен Кен Ваннберг. Но поскольку фильм большей частью снимался в Канаде (а по местным законам если в творческой группе есть канадские специалисты, фильм получает различные налоговые льготы), был приглашен еще один композитор - Рик Уилкинс.
Результат работы двух композиторов был великолепен. Хотя большая роль все-таки досталась Ваннбергу, Уилкинс внес не меньший вклад в музыкальную палитру (да, всего лишь 13 минут, но только один трек - Seance - с легкостью показывает мастерство композитора). Кроме того, каждый блестяще интерпретировал тему Блейка, и использовал ее для своих сцен.
В общем, приглушите свет и насладитесь музыкой, которая и страшна, и романтична одновременно.
-
[teatrix.ru].t10229.torrent 
Торрент: Зарегистрирован [ 2015-11-01 20:51 ] · 7B24BA15B344D8F9622CA9A67E4E61110B76987D

Скачать .torrent

Скачать

20 KB

Статус: проверено
Скачан: 0 раз
Размер: 454 MB
terms.php



Быстрый ответ

Имя:

      
Для отправки сообщений необходимо включить JavaScript
Показать сообщения:    

Текущее время: 18-Янв 00:24

Часовой пояс: UTC + 3


Вы можете начинать темы
Вы можете отвечать на сообщения
Вы не можете редактировать свои сообщения
Вы не можете удалять свои сообщения
Вы не можете голосовать в опросах
Вы не можете прикреплять файлы к сообщениям
Вы можете скачивать файлы