(Score) Маленький магазинчик ужасов / The Little Shop Of Horrors (by Fred Katz) - 2010 (1960), FLAC (image+.cue), lossless


Статистика раздачи [Обновить пиров]
Размер:  176 MB   |    Зарегистрирован:  1 год 1 месяц   |    Скачан:  0 раз

Полного источника не было: Никогда

Личеров:  4  [  0 KB/s  ]   Подробная статистика пиров
 
   
 
 
 

[Цитировать]

Маленький магазинчик ужасов / The Little Shop Of Horrors
Жанр: Score
Композитор: Fred Katz
Год выпуска диска: 2010
Год выпуска фильма: 1960
Производитель диска: USA
Издатель (лейбл): Kritzerland
Номер по каталогу: KR 20015-3
Аудиокодек: FLAC (*.flac)
Тип рипа: image+.cue
Битрейт аудио: lossless
Продолжительность: 34.00
Источник: собственный рип
Наличие сканов в содержимом раздачи: да (600 dpi)
Треклист
01. Main Title [02:29.50]
02. Eating Carnations [00:35.00]
03. Seymour Gets The Fancy-Shmancy Plant [01:50.15]
04. Skid Row [01:55.10]
05. "Sick Room Serenade" (Parts 1 & 2) [03:59.16]
06. Audrey Junior / Feed Me! / Still Hungry [02:12.36]
07. I'll Think Of Something / Plant Food [02:41.17]
08. Caesarean Salad [02:29.12]
09. Feeding Time / Popular Audrey Junior [01:36.58]
10. Seymour Goes To The Dentist [01:03.57]
11. Mushnick And Audrey Junior / You'll Get Yours [03:29.16]
12. Audrey Gets Mad [00:58.38]
13. Faces Of Audrey Junior [01:41.57]
14. Hypnotized Seymour / Master Needs Food [03:51.18]
15. Seymour On The Run [02:25.37]
16. Seymour's Fate / End Title [00:41.05]

Отчёт EAC

Exact Audio Copy V1.0 beta 3 from 29. August 2011
EAC extraction logfile from 5. July 2013, 21:32
Fred Katz / The Little Shop Of Horrors
Used drive : TSSTcorpCDDVDW SH-S202H Adapter: 0 ID: 0
Read mode : SecureUtilize accurate stream : YesDefeat audio cache : YesMake use of C2 pointers : No
Read offset correction : 6Overread into Lead-In and Lead-Out : NoFill up missing offset samples with silence : YesDelete leading and trailing silent blocks : NoNull samples used in CRC calculations : YesUsed interface : Native Win32 interface for Win NT & 2000
Used output format : Internal WAV RoutinesSample format : 44.100 Hz; 16 Bit; Stereo
TOC of the extracted CD
Track | Start | Length | Start sector | End sector --------------------------------------------------------- 1 | 0:00.00 | 2:29.50 | 0 | 11224 2 | 2:29.50 | 0:35.00 | 11225 | 13849 3 | 3:04.50 | 1:50.15 | 13850 | 22114 4 | 4:54.65 | 1:55.10 | 22115 | 30749 5 | 6:50.00 | 3:59.16 | 30750 | 48690 6 | 10:49.16 | 2:12.36 | 48691 | 58626 7 | 13:01.52 | 2:41.17 | 58627 | 70718 8 | 15:42.69 | 2:29.12 | 70719 | 81905 9 | 18:12.06 | 1:36.58 | 81906 | 89163 10 | 19:48.64 | 1:03.57 | 89164 | 93945 11 | 20:52.46 | 3:29.16 | 93946 | 109636 12 | 24:21.62 | 0:58.38 | 109637 | 114024 13 | 25:20.25 | 1:41.57 | 114025 | 121656 14 | 27:02.07 | 3:51.18 | 121657 | 138999 15 | 30:53.25 | 2:25.37 | 139000 | 149911 16 | 33:18.62 | 0:41.05 | 149912 | 152991
Range status and errors
Selected range
Filename D:\Fred Katz - The Little Shop Of Horrors\Fred Katz - The Little Shop Of Horrors.wav
Peak level 99.0 % Extraction speed 2.5 X Range quality 100.0 % Test CRC 6012F483 Copy CRC 6012F483 Copy OK
No errors occurred
AccurateRip summary
Track 1 accurately ripped (confidence 2) [A7F59281] (AR v2)Track 2 accurately ripped (confidence 2) [9C17B1FD] (AR v2)Track 3 accurately ripped (confidence 2) [E091B4BE] (AR v2)Track 4 accurately ripped (confidence 2) [91B827F1] (AR v2)Track 5 accurately ripped (confidence 2) [EEC00364] (AR v2)Track 6 accurately ripped (confidence 2) [3BB7B183] (AR v2)Track 7 accurately ripped (confidence 2) [3A909ED0] (AR v2)Track 8 accurately ripped (confidence 2) [5A516754] (AR v2)Track 9 accurately ripped (confidence 2) [0F6F3F7B] (AR v2)Track 10 accurately ripped (confidence 2) [DF799FCF] (AR v2)Track 11 accurately ripped (confidence 2) [EBE4C4AE] (AR v2)Track 12 accurately ripped (confidence 2) [647BC7E3] (AR v2)Track 13 accurately ripped (confidence 2) [BA676979] (AR v2)Track 14 accurately ripped (confidence 2) [3B1AF4FB] (AR v2)Track 15 accurately ripped (confidence 2) [8DBA1103] (AR v2)Track 16 accurately ripped (confidence 2) [BB85159B] (AR v2)
All tracks accurately ripped
End of status report
==== Log checksum 8E0450FA36BB693C46822BB0732E09EDA1C09A806C3FF47FE486C0CB96D66FF7 ====

Информация об альбоме от Composer's fan

НАКОРМИ МЕНЯ!!!
Эта фраза стала, пожалуй, визитной карточкой культового ужастика 1960 года Маленький магазинчик ужасов. Это уже потом, через 20 с лишним лет по фильму будет сделан мюзикл, с большим (по тем годам) бюджетом, кучей известных актеров и с кучей песен и танцев.
А тогда - великий и ужасный Роджер Корман умудрился снять фильм меньше, чем за 30 тысяч долларов, да еще и за рекордные 2 с небольшим дня!
Сюжет крутится вокруг маленького магазинчика, в котором живет маленькое (просто еще плохо откормленное!) растение. К несчастью для хозяина цветка, его нанимателя (да и для всех жителей городка), цветочек питается исключительно человечиной. Что было дальше - настоящие фанаты и так знают, тем же, кто фильм не видел - рекомендуем посмотреть этот милый ужастик 60-х. Тем более, это не совсем ужастик в "чистом" виде - элементы комедии присутствуют, причем в немалом количестве! Чего стоит мазохист со здоровыми зубами на приеме у стоматолога (в этой роли, между прочим, снялся тогда еще молодой и мало кому известный Джек Николсон!).
Что же касается музыки - она прекрасна. Не забывайте, это 60-е! И если вы не снимаете фильм про античные времена, у вас обязательно будет джаз. Именно на смешении джаза и музыкальных элементов "классических" ужастиков и построена музыка, написанная замечательным композитором (и исполнителем) Фредом Кацом. Можно сколь угодно описывать достоинства этого диска, но, может быть, проще просто взять и послушать его?
-
[teatrix.ru].t10230.torrent 
Торрент: Зарегистрирован [ 2015-11-01 20:51 ] · 5E54CD0601AEF0309903271E0D1DD7C4E8ACBD2B

Скачать .torrent

Скачать

15 KB

Статус: проверено
Скачан: 0 раз
Размер: 176 MB
terms.php



Быстрый ответ

Имя:

      
Для отправки сообщений необходимо включить JavaScript
Показать сообщения:    

Текущее время: 02-Дек 21:11

Часовой пояс: UTC + 3


Вы можете начинать темы
Вы можете отвечать на сообщения
Вы не можете редактировать свои сообщения
Вы не можете удалять свои сообщения
Вы не можете голосовать в опросах
Вы не можете прикреплять файлы к сообщениям
Вы можете скачивать файлы