(Score) Анжелика, маркиза ангелов / Angélique, marquise des anges / Angelique (by Nathaniel Mechaly) - 2013, FLAC (tracks+.cue), lossless


Статистика раздачи [Обновить пиров]
Размер:  255 MB   |    Зарегистрирован:  1 год 1 месяц   |    Скачан:  0 раз

Полного источника не было: Никогда

Личеров:  5  [  0 KB/s  ]   Подробная статистика пиров
 
   
 
 
 

[Цитировать]

Анжелика, маркиза ангелов / Angélique, marquise des anges-Жанр: Score
Композитор: Nathaniel Mechaly
Год выпуска диска: 2013
Производитель диска: SNA, France
Издатель (лейбл): BOriginal / Cristal Records
Номер по каталогу: BO 013-Аудиокодек: FLAC (*.flac)
Тип рипа: tracks+.cue
Битрейт аудио: lossless
Продолжительность: 00:48:34
Источник: собственный рип
Наличие сканов в содержимом раздачи: да, 600 dpi-Ссылки: Кинопоиск | IMDB | Wikipedia | SoundtrackCollector

Треклист

01. Prologue Angélique [0:00:45.70]
02. Les Écuries [0:03:13.00]
03. Angélique [0:03:35.42]
04. Je Partirai [0:02:22.30]
05. Geoffrey De Peyrac [0:02:40.05]
06. Peyrac & Angélique [0:01:43.12]
07. Scène d'Amour [0:03:09.37]
08. Des Jours Heureux [0:02:56.03]
09. La Fabrique [0:01:47.11]
10. Les Lettres [0:01:48.18]
11. Le Complot [0:01:30.01]
12. Flipo Va Chercher les Lettres [0:02:48.36]
13. Le Frère [0:01:26.03]
14. Le Tribunal [0:02:17.21]
15. Arrestation de Peyrac [0:02:21.54]
16. Mort d'Angélique [0:01:38.25]
17. La Décision du Roi [0:02:37.05]
18. Le Bûcher / Desgrez S'Échappe [0:04:15.18]
19. Epilogue [0:03:00.72]
20. Générique de Fin Angélique [0:02:39.66]

Лог создания рипа

Exact Audio Copy V1.1 from 23. June 2015
EAC extraction logfile from 30. October 2015, 17:40
Nathaniel Mechaly / Angélique
Used drive : PLEXTOR CD-R PX-230A Adapter: 1 ID: 0
Read mode : SecureUtilize accurate stream : YesDefeat audio cache : YesMake use of C2 pointers : No
Read offset correction : 738Overread into Lead-In and Lead-Out : NoFill up missing offset samples with silence : YesDelete leading and trailing silent blocks : NoNull samples used in CRC calculations : YesUsed interface : Native Win32 interface for Win NT & 2000Gap handling : Appended to previous track
Used output format : User Defined EncoderSelected bitrate : 1024 kBit/sQuality : HighAdd ID3 tag : NoCommand line compressor : C:\Program Files\Exact Audio Copy\Flac\flac.exeAdditional command line options : -6 -V -T "ARTIST=%artist%" -T "TITLE=%title%" -T "ALBUM=%albumtitle%" -T "DATE=%year%"-T "TRACKNUMBER=%tracknr%" -T "GENRE=%genre%" -T "COMMENT=%comment%" -T "ALBUMARTIST=%albuminterpret%" -T "COMPOSER=%composer%"-T "DISCNUMBER=%cdnumber%" -T "TOTALDISCS=%totalcds%" -T "TOTALTRACKS=%numtracks%" %source% -o %dest%
TOC of the extracted CD
Track | Start | Length | Start sector | End sector --------------------------------------------------------- 1 | 0:00.00 | 0:45.70 | 0 | 3444 2 | 0:45.70 | 3:13.00 | 3445 | 17919 3 | 3:58.70 | 3:35.42 | 17920 | 34086 4 | 7:34.37 | 2:22.30 | 34087 | 44766 5 | 9:56.67 | 2:40.05 | 44767 | 56771 6 | 12:36.72 | 1:43.12 | 56772 | 64508 7 | 14:20.09 | 3:09.37 | 64509 | 78720 8 | 17:29.46 | 2:56.03 | 78721 | 91923 9 | 20:25.49 | 1:47.11 | 91924 | 99959 10 | 22:12.60 | 1:48.18 | 99960 | 108077 11 | 24:01.03 | 1:30.01 | 108078 | 114828 12 | 25:31.04 | 2:48.36 | 114829 | 127464 13 | 28:19.40 | 1:26.03 | 127465 | 133917 14 | 29:45.43 | 2:17.21 | 133918 | 144213 15 | 32:02.64 | 2:21.54 | 144214 | 154842 16 | 34:24.43 | 1:38.25 | 154843 | 162217 17 | 36:02.68 | 2:37.05 | 162218 | 173997 18 | 38:39.73 | 4:15.18 | 173998 | 193140 19 | 42:55.16 | 3:00.72 | 193141 | 206712 20 | 45:56.13 | 2:39.66 | 206713 | 218703
Track 1
Filename C:\Music\01 - Prologue Angélique.wav
Pre-gap length 0:00:02.00
Peak level 95.4 % Extraction speed 2.2 X Track quality 100.0 % Test CRC 86BD261A Copy CRC 86BD261A Track not present in AccurateRip database Copy OK
Track 2
Filename C:\Music\02 - Les Écuries.wav
Peak level 95.8 % Extraction speed 3.7 X Track quality 100.0 % Test CRC A7A85AB2 Copy CRC A7A85AB2 Track not present in AccurateRip database Copy OK
Track 3
Filename C:\Music\03 - Angélique.wav
Peak level 95.4 % Extraction speed 3.6 X Track quality 100.0 % Test CRC 94C52994 Copy CRC 94C52994 Track not present in AccurateRip database Copy OK
Track 4
Filename C:\Music\04 - Je Partirai.wav
Peak level 79.9 % Extraction speed 3.2 X Track quality 99.9 % Test CRC FD6D8B9C Copy CRC FD6D8B9C Track not present in AccurateRip database Copy OK
Track 5
Filename C:\Music\05 - Geoffrey De Peyrac.wav
Peak level 95.4 % Extraction speed 3.7 X Track quality 100.0 % Test CRC E8923BDA Copy CRC E8923BDA Track not present in AccurateRip database Copy OK
Track 6
Filename C:\Music\06 - Peyrac & Angélique.wav
Peak level 73.0 % Extraction speed 3.2 X Track quality 100.0 % Test CRC A25C21F0 Copy CRC A25C21F0 Track not present in AccurateRip database Copy OK
Track 7
Filename C:\Music\07 - Scène d'Amour.wav
Peak level 88.2 % Extraction speed 3.7 X Track quality 100.0 % Test CRC ADA5DBF4 Copy CRC ADA5DBF4 Track not present in AccurateRip database Copy OK
Track 8
Filename C:\Music\08 - Des Jours Heureux.wav
Peak level 92.8 % Extraction speed 3.6 X Track quality 100.0 % Test CRC 88058F4D Copy CRC 88058F4D Track not present in AccurateRip database Copy OK
Track 9
Filename C:\Music\09 - La Fabrique.wav
Peak level 96.9 % Extraction speed 3.5 X Track quality 100.0 % Test CRC 292AD8DC Copy CRC 292AD8DC Track not present in AccurateRip database Copy OK
Track 10
Filename C:\Music\10 - Les Lettres.wav
Peak level 93.4 % Extraction speed 3.3 X Track quality 99.9 % Test CRC 9D81C671 Copy CRC 9D81C671 Track not present in AccurateRip database Copy OK
Track 11
Filename C:\Music\11 - Le Complot.wav
Peak level 95.1 % Extraction speed 3.1 X Track quality 100.0 % Test CRC E2DCDA7C Copy CRC E2DCDA7C Track not present in AccurateRip database Copy OK
Track 12
Filename C:\Music\12 - Flipo Va Chercher les Lettres.wav
Peak level 95.4 % Extraction speed 3.7 X Track quality 100.0 % Test CRC 9730C483 Copy CRC 9730C483 Track not present in AccurateRip database Copy OK
Track 13
Filename C:\Music\13 - Le Frère.wav
Peak level 89.7 % Extraction speed 3.9 X Track quality 100.0 % Test CRC C49E884F Copy CRC C49E884F Track not present in AccurateRip database Copy OK
Track 14
Filename C:\Music\14 - Le Tribunal.wav
Peak level 92.4 % Extraction speed 3.5 X Track quality 100.0 % Test CRC 3F7FE9BE Copy CRC 3F7FE9BE Track not present in AccurateRip database Copy OK
Track 15
Filename C:\Music\15 - Arrestation de Peyrac.wav
Peak level 94.0 % Extraction speed 3.2 X Track quality 99.9 % Test CRC AF56ABF1 Copy CRC AF56ABF1 Track not present in AccurateRip database Copy OK
Track 16
Filename C:\Music\16 - Mort d'Angélique.wav
Peak level 89.8 % Extraction speed 3.3 X Track quality 100.0 % Test CRC FEB5C73A Copy CRC FEB5C73A Track not present in AccurateRip database Copy OK
Track 17
Filename C:\Music\17 - La Décision du Roi.wav
Peak level 95.4 % Extraction speed 3.7 X Track quality 100.0 % Test CRC D3934296 Copy CRC D3934296 Track not present in AccurateRip database Copy OK
Track 18
Filename C:\Music\18 - Le Bûcher - Desgrez S'Échappe.wav
Peak level 95.4 % Extraction speed 3.5 X Track quality 100.0 % Test CRC C27842BA Copy CRC C27842BA Track not present in AccurateRip database Copy OK
Track 19
Filename C:\Music\19 - Epilogue.wav
Peak level 95.4 % Extraction speed 3.4 X Track quality 100.0 % Test CRC E303D234 Copy CRC E303D234 Track not present in AccurateRip database Copy OK
Track 20
Filename C:\Music\20 - Générique de Fin Angélique.wav
Peak level 95.4 % Extraction speed 3.6 X Track quality 100.0 % Test CRC 929E1F21 Copy CRC 929E1F21 Track not present in AccurateRip database Copy OK
None of the tracks are present in the AccurateRip database
No errors occurred
End of status report
---- CUETools DB Plugin V2.1.6
[CTDB TOCID: yLBfJNKlOMkadWQzxxyxDku4yPM-] foundSubmit result: yLBfJNKlOMkadWQzxxyxDku4yPM- has been confirmedTrack | CTDB Status 1 | (1/1) Accurately ripped 2 | (1/1) Accurately ripped 3 | (1/1) Accurately ripped 4 | (1/1) Accurately ripped 5 | (1/1) Accurately ripped 6 | (1/1) Accurately ripped 7 | (1/1) Accurately ripped 8 | (1/1) Accurately ripped 9 | (1/1) Accurately ripped 10 | (1/1) Accurately ripped 11 | (1/1) Accurately ripped 12 | (1/1) Accurately ripped 13 | (1/1) Accurately ripped 14 | (1/1) Accurately ripped 15 | (1/1) Accurately ripped 16 | (1/1) Accurately ripped 17 | (1/1) Accurately ripped 18 | (1/1) Accurately ripped 19 | (1/1) Accurately ripped 20 | (1/1) Accurately ripped
==== Log checksum B640180566B6CFA7FBA64DC305E8F656FBB18338514BFA1D85654254BE444A1C ====

Содержание индексной карты (.CUE)

REM GENRE SoundtrackREM DATE 2013REM DISCID 110B6414REM COMMENT "ExactAudioCopy v1.1"PERFORMER "Nathaniel Mechaly"TITLE "Angelique"FILE "01 - Prologue Angelique.wav" WAVE TRACK 01 AUDIO TITLE "Prologue Angelique" PERFORMER "Nathaniel Mechaly" INDEX 01 00:00:00FILE "02 - Les Ecuries.wav" WAVE TRACK 02 AUDIO TITLE "Les Ecuries" PERFORMER "Nathaniel Mechaly" INDEX 01 00:00:00FILE "03 - Angelique.wav" WAVE TRACK 03 AUDIO TITLE "Angelique" PERFORMER "Nathaniel Mechaly" INDEX 01 00:00:00FILE "04 - Je Partirai.wav" WAVE TRACK 04 AUDIO TITLE "Je Partirai" PERFORMER "Nathaniel Mechaly" INDEX 01 00:00:00FILE "05 - Geoffrey De Peyrac.wav" WAVE TRACK 05 AUDIO TITLE "Geoffrey De Peyrac" PERFORMER "Nathaniel Mechaly" INDEX 01 00:00:00FILE "06 - Peyrac & Angelique.wav" WAVE TRACK 06 AUDIO TITLE "Peyrac & Angelique" PERFORMER "Nathaniel Mechaly" INDEX 01 00:00:00FILE "07 - Scene d'Amour.wav" WAVE TRACK 07 AUDIO TITLE "Scene d'Amour" PERFORMER "Nathaniel Mechaly" INDEX 01 00:00:00FILE "08 - Des Jours Heureux.wav" WAVE TRACK 08 AUDIO TITLE "Des Jours Heureux" PERFORMER "Nathaniel Mechaly" INDEX 01 00:00:00FILE "09 - La Fabrique.wav" WAVE TRACK 09 AUDIO TITLE "La Fabrique" PERFORMER "Nathaniel Mechaly" INDEX 01 00:00:00FILE "10 - Les Lettres.wav" WAVE TRACK 10 AUDIO TITLE "Les Lettres" PERFORMER "Nathaniel Mechaly" INDEX 01 00:00:00FILE "11 - Le Complot.wav" WAVE TRACK 11 AUDIO TITLE "Le Complot" PERFORMER "Nathaniel Mechaly" INDEX 01 00:00:00FILE "12 - Flipo Va Chercher les Lettres.wav" WAVE TRACK 12 AUDIO TITLE "Flipo Va Chercher les Lettres" PERFORMER "Nathaniel Mechaly" INDEX 01 00:00:00FILE "13 - Le Frere.wav" WAVE TRACK 13 AUDIO TITLE "Le Frere" PERFORMER "Nathaniel Mechaly" INDEX 01 00:00:00FILE "14 - Le Tribunal.wav" WAVE TRACK 14 AUDIO TITLE "Le Tribunal" PERFORMER "Nathaniel Mechaly" INDEX 01 00:00:00FILE "15 - Arrestation de Peyrac.wav" WAVE TRACK 15 AUDIO TITLE "Arrestation de Peyrac" PERFORMER "Nathaniel Mechaly" INDEX 01 00:00:00FILE "16 - Mort d'Angelique.wav" WAVE TRACK 16 AUDIO TITLE "Mort d'Angelique" PERFORMER "Nathaniel Mechaly" INDEX 01 00:00:00FILE "17 - La Decision du Roi.wav" WAVE TRACK 17 AUDIO TITLE "La Decision du Roi" PERFORMER "Nathaniel Mechaly" INDEX 01 00:00:00FILE "18 - Le Bucher - Desgrez S'Echappe.wav" WAVE TRACK 18 AUDIO TITLE "Le Bucher / Desgrez S'Echappe" PERFORMER "Nathaniel Mechaly" INDEX 01 00:00:00FILE "19 - Epilogue.wav" WAVE TRACK 19 AUDIO TITLE "Epilogue" PERFORMER "Nathaniel Mechaly" INDEX 01 00:00:00FILE "20 - Generique de Fin Angelique.wav" WAVE TRACK 20 AUDIO TITLE "Generique de Fin Angelique" PERFORMER "Nathaniel Mechaly" INDEX 01 00:00:00
[teatrix.ru].t10231.torrent 
Торрент: Зарегистрирован [ 2015-11-01 20:51 ] · C2ACFEDA9D77D9789F205A97A0F63EFF10EF2352

Скачать .torrent

Скачать

22 KB

Статус: проверено
Скачан: 0 раз
Размер: 255 MB
terms.php



Быстрый ответ

Имя:

      
Для отправки сообщений необходимо включить JavaScript
Показать сообщения:    

Текущее время: 06-Дек 20:57

Часовой пояс: UTC + 3


Вы можете начинать темы
Вы можете отвечать на сообщения
Вы не можете редактировать свои сообщения
Вы не можете удалять свои сообщения
Вы не можете голосовать в опросах
Вы не можете прикреплять файлы к сообщениям
Вы можете скачивать файлы