(Score) Чужестранка / Outlander (Original Television Soundtrack), Vol. 2 (by Bear McCreary) - 2015 (2014), FLAC (tracks+.cue), lossless


Статистика раздачи [Обновить пиров]
Размер:  396 MB   |    Зарегистрирован:  1 год 1 месяц   |    Скачан:  3 раза

Полного источника не было: 11 дней

Личеров:  5  [  0 KB/s  ]   Подробная статистика пиров
 
   
 
 
 

[Цитировать]

Чужестранка / Outlander (Original Television Soundtrack), Vol. 2-Жанр: Score
Композитор: Bear McCreary
Год выпуска диска: 2015
Год выпуска сериала: 2014
Производитель диска: Sony DADC, Austria
Издатель (лейбл): Sony Classical
Номер по каталогу: 88875146592-Аудиокодек: FLAC (*.flac)
Тип рипа: tracks+.cue
Битрейт аудио: lossless
Продолжительность: 01:05:25
Источник: собственный рип
Наличие сканов в содержимом раздачи: да, 600 dpi-Ссылки: Кинопоиск | IMDB | Wikipedia | SoundtrackCollector
UPD: Торрент обновлен, добавлены полные сканы

Треклист

01. Outlander - The Skye Boat Song (Extended) (feat. Raya Yarbrough) [0:04:28.41]
02. Fort William Rescue [0:06:42.28]
03. The Summoning (feat. Raya Yarbrough) [0:03:23.21]
04. The Key to Lallybroch [0:07:10.71]
05. On the Road [0:05:08.31]
06. An Fhideag Airgid (feat. Gillebride MacMillan) [0:01:36.58]
07. The Devil's Mark [0:03:34.06]
08. To the Begging I Will Go [0:02:17.30]
09. To Wentworth [0:03:53.60]
10. Tale of the Tusks [0:04:13.25]
11. Tracking Jamie [0:04:31.73]
12. Wool Waulking Songs [0:02:13.27]
13. Charge of the Highland Cattle [0:03:37.29]
14. Hand Surgery [0:04:05.29]
15. Setting Sail (feat. Raya Yarbrough) [0:08:30.16]

Лог создания рипа

Exact Audio Copy V1.1 from 23. June 2015
EAC extraction logfile from 6. October 2015, 20:34
Bear McCreary / Outlander - The Series Vol 2
Used drive : PLEXTOR CD-R PX-230A Adapter: 1 ID: 0
Read mode : SecureUtilize accurate stream : YesDefeat audio cache : YesMake use of C2 pointers : No
Read offset correction : 738Overread into Lead-In and Lead-Out : NoFill up missing offset samples with silence : YesDelete leading and trailing silent blocks : NoNull samples used in CRC calculations : YesUsed interface : Native Win32 interface for Win NT & 2000Gap handling : Appended to previous track
Used output format : User Defined EncoderSelected bitrate : 1024 kBit/sQuality : HighAdd ID3 tag : NoCommand line compressor : C:\Program Files\Exact Audio Copy\Flac\flac.exeAdditional command line options : -6 -V -T "ARTIST=%artist%" -T "TITLE=%title%" -T "ALBUM=%albumtitle%" -T "DATE=%year%"-T "TRACKNUMBER=%tracknr%" -T "GENRE=%genre%" -T "COMMENT=%comment%" -T "ALBUMARTIST=%albuminterpret%" -T "COMPOSER=%composer%"-T "DISCNUMBER=%cdnumber%" -T "TOTALDISCS=%totalcds%" -T "TOTALTRACKS=%numtracks%" %source% -o %dest%
TOC of the extracted CD
Track | Start | Length | Start sector | End sector --------------------------------------------------------- 1 | 0:00.00 | 4:28.41 | 0 | 20140 2 | 4:28.41 | 6:42.28 | 20141 | 50318 3 | 11:10.69 | 3:23.21 | 50319 | 65564 4 | 14:34.15 | 7:10.71 | 65565 | 97885 5 | 21:45.11 | 5:08.31 | 97886 | 121016 6 | 26:53.42 | 1:36.58 | 121017 | 128274 7 | 28:30.25 | 3:34.06 | 128275 | 144330 8 | 32:04.31 | 2:17.30 | 144331 | 154635 9 | 34:21.61 | 3:53.60 | 154636 | 172170 10 | 38:15.46 | 4:13.25 | 172171 | 191170 11 | 42:28.71 | 4:31.73 | 191171 | 211568 12 | 47:00.69 | 2:13.27 | 211569 | 221570 13 | 49:14.21 | 3:37.29 | 221571 | 237874 14 | 52:51.50 | 4:05.29 | 237875 | 256278 15 | 56:57.04 | 8:30.16 | 256279 | 294544
Track 1
Filename C:\Music\01 - Outlander - The Skye Boat Song (Extended) (feat. Raya Yarbrough).wav
Pre-gap length 0:00:02.00
Peak level 94.7 % Extraction speed 5.2 X Track quality 99.9 % Test CRC E08AA44C Copy CRC E08AA44C Track not present in AccurateRip database Copy OK
Track 2
Filename C:\Music\02 - Fort William Rescue.wav
Pre-gap length 0:00:01.00
Peak level 94.6 % Extraction speed 6.0 X Track quality 99.9 % Test CRC AE105EC8 Copy CRC AE105EC8 Track not present in AccurateRip database Copy OK
Track 3
Filename C:\Music\03 - The Summoning (feat. Raya Yarbrough).wav
Pre-gap length 0:00:01.38
Peak level 94.4 % Extraction speed 6.7 X Track quality 100.0 % Test CRC CA7580CF Copy CRC CA7580CF Track not present in AccurateRip database Copy OK
Track 4
Filename C:\Music\04 - The Key to Lallybroch.wav
Pre-gap length 0:00:01.37
Peak level 73.3 % Extraction speed 7.0 X Track quality 99.9 % Test CRC D2A176F8 Copy CRC D2A176F8 Track not present in AccurateRip database Copy OK
Track 5
Filename C:\Music\05 - On the Road.wav
Pre-gap length 0:00:01.38
Peak level 94.4 % Extraction speed 7.2 X Track quality 99.9 % Test CRC 6FAF66D0 Copy CRC 6FAF66D0 Track not present in AccurateRip database Copy OK
Track 6
Filename C:\Music\06 - An Fhideag Airgid (feat. Gillebride MacMillan).wav
Pre-gap length 0:00:01.38
Peak level 31.2 % Extraction speed 7.3 X Track quality 100.0 % Test CRC F4B37F60 Copy CRC F4B37F60 Track not present in AccurateRip database Copy OK
Track 7
Filename C:\Music\07 - The Devil's Mark.wav
Pre-gap length 0:00:01.38
Peak level 95.4 % Extraction speed 8.2 X Track quality 100.0 % Test CRC DC4672F3 Copy CRC DC4672F3 Track not present in AccurateRip database Copy OK
Track 8
Filename C:\Music\08 - To the Begging I Will Go.wav
Pre-gap length 0:00:00.38
Peak level 57.9 % Extraction speed 8.0 X Track quality 100.0 % Test CRC 5E6F82C4 Copy CRC 5E6F82C4 Track not present in AccurateRip database Copy OK
Track 9
Filename C:\Music\09 - To Wentworth.wav
Pre-gap length 0:00:01.38
Peak level 94.4 % Extraction speed 8.7 X Track quality 100.0 % Test CRC 8484450D Copy CRC 8484450D Track not present in AccurateRip database Copy OK
Track 10
Filename C:\Music\10 - Tale of the Tusks.wav
Pre-gap length 0:00:01.38
Peak level 61.3 % Extraction speed 8.8 X Track quality 100.0 % Test CRC F0CBAC67 Copy CRC F0CBAC67 Track not present in AccurateRip database Copy OK
Track 11
Filename C:\Music\11 - Tracking Jamie.wav
Pre-gap length 0:00:01.38
Peak level 94.4 % Extraction speed 9.3 X Track quality 100.0 % Test CRC FCAEB534 Copy CRC FCAEB534 Track not present in AccurateRip database Copy OK
Track 12
Filename C:\Music\12 - Wool Waulking Songs.wav
Pre-gap length 0:00:01.38
Peak level 94.6 % Extraction speed 8.7 X Track quality 100.0 % Test CRC 7EB5074F Copy CRC 7EB5074F Track not present in AccurateRip database Copy OK
Track 13
Filename C:\Music\13 - Charge of the Highland Cattle.wav
Pre-gap length 0:00:01.38
Peak level 94.4 % Extraction speed 9.5 X Track quality 100.0 % Test CRC 0D0A7B84 Copy CRC 0D0A7B84 Track not present in AccurateRip database Copy OK
Track 14
Filename C:\Music\14 - Hand Surgery.wav
Pre-gap length 0:00:01.38
Peak level 64.2 % Extraction speed 9.7 X Track quality 100.0 % Test CRC 671778B0 Copy CRC 671778B0 Track not present in AccurateRip database Copy OK
Track 15
Filename C:\Music\15 - Setting Sail (feat. Raya Yarbrough).wav
Peak level 94.3 % Extraction speed 10.5 X Track quality 100.0 % Test CRC 1C55DC0C Copy CRC 1C55DC0C Track not present in AccurateRip database Copy OK
None of the tracks are present in the AccurateRip database
No errors occurred
End of status report
---- CUETools DB Plugin V2.1.6
[CTDB TOCID: 5LwMHaqcdjEAJnC7RAIolvFCxNc-] foundSubmit result: 5LwMHaqcdjEAJnC7RAIolvFCxNc- has been confirmedTrack | CTDB Status 1 | (1/1) Accurately ripped 2 | (1/1) Accurately ripped 3 | (1/1) Accurately ripped 4 | (1/1) Accurately ripped 5 | (1/1) Accurately ripped 6 | (1/1) Accurately ripped 7 | (1/1) Accurately ripped 8 | (1/1) Accurately ripped 9 | (1/1) Accurately ripped 10 | (1/1) Accurately ripped 11 | (1/1) Accurately ripped 12 | (1/1) Accurately ripped 13 | (1/1) Accurately ripped 14 | (1/1) Accurately ripped 15 | (1/1) Accurately ripped
==== Log checksum 8C062764AC538937EE8C0043C3212C8109F29CB27DA9C69ECCABA101E6631ECC ====

Содержание индексной карты (.CUE)

REM GENRE SoundtrackREM DATE 2015REM DISCID D20F570FREM COMMENT "ExactAudioCopy v1.1"PERFORMER "Bear McCreary"TITLE "Outlander - The Series Vol 2"FILE "01 - Outlander - The Skye Boat Song (Extended) (feat. Raya Yarbrough).wav" WAVE TRACK 01 AUDIO TITLE "Outlander - The Skye Boat Song (Extended) (feat. Raya Yarbrough)" PERFORMER "Bear McCreary" INDEX 01 00:00:00 TRACK 02 AUDIO TITLE "Fort William Rescue" PERFORMER "Bear McCreary" INDEX 00 04:27:41FILE "02 - Fort William Rescue.wav" WAVE INDEX 01 00:00:00 TRACK 03 AUDIO TITLE "The Summoning (feat. Raya Yarbrough)" PERFORMER "Bear McCreary" INDEX 00 06:40:65FILE "03 - The Summoning (feat. Raya Yarbrough).wav" WAVE INDEX 01 00:00:00 TRACK 04 AUDIO TITLE "The Key to Lallybroch" PERFORMER "Bear McCreary" INDEX 00 03:21:59FILE "04 - The Key to Lallybroch.wav" WAVE INDEX 01 00:00:00 TRACK 05 AUDIO TITLE "On the Road" PERFORMER "Bear McCreary" INDEX 00 07:09:33FILE "05 - On the Road.wav" WAVE INDEX 01 00:00:00 TRACK 06 AUDIO TITLE "An Fhideag Airgid (feat. Gillebride MacMillan)" PERFORMER "Bear McCreary" INDEX 00 05:06:68FILE "06 - An Fhideag Airgid (feat. Gillebride MacMillan).wav" WAVE INDEX 01 00:00:00 TRACK 07 AUDIO TITLE "The Devil's Mark" PERFORMER "Bear McCreary" INDEX 00 01:35:20FILE "07 - The Devil's Mark.wav" WAVE INDEX 01 00:00:00 TRACK 08 AUDIO TITLE "To the Begging I Will Go" PERFORMER "Bear McCreary" INDEX 00 03:33:43FILE "08 - To the Begging I Will Go.wav" WAVE INDEX 01 00:00:00 TRACK 09 AUDIO TITLE "To Wentworth" PERFORMER "Bear McCreary" INDEX 00 02:15:67FILE "09 - To Wentworth.wav" WAVE INDEX 01 00:00:00 TRACK 10 AUDIO TITLE "Tale of the Tusks" PERFORMER "Bear McCreary" INDEX 00 03:52:22FILE "10 - Tale of the Tusks.wav" WAVE INDEX 01 00:00:00 TRACK 11 AUDIO TITLE "Tracking Jamie" PERFORMER "Bear McCreary" INDEX 00 04:11:62FILE "11 - Tracking Jamie.wav" WAVE INDEX 01 00:00:00 TRACK 12 AUDIO TITLE "Wool Waulking Songs" PERFORMER "Bear McCreary" INDEX 00 04:30:35FILE "12 - Wool Waulking Songs.wav" WAVE INDEX 01 00:00:00 TRACK 13 AUDIO TITLE "Charge of the Highland Cattle" PERFORMER "Bear McCreary" INDEX 00 02:11:64FILE "13 - Charge of the Highland Cattle.wav" WAVE INDEX 01 00:00:00 TRACK 14 AUDIO TITLE "Hand Surgery" PERFORMER "Bear McCreary" INDEX 00 03:35:66FILE "14 - Hand Surgery.wav" WAVE INDEX 01 00:00:00FILE "15 - Setting Sail (feat. Raya Yarbrough).wav" WAVE TRACK 15 AUDIO TITLE "Setting Sail (feat. Raya Yarbrough)" PERFORMER "Bear McCreary" INDEX 01 00:00:00
[teatrix.ru].t10232.torrent 
Торрент: Зарегистрирован [ 2015-11-01 20:51 ] · D2568D48601C776B282BAC509E0289B82E0D79BA

Скачать .torrent

Скачать

18 KB

Статус: проверено
Скачан: 3 раз
Размер: 396 MB
terms.php



Быстрый ответ

Имя:

      
Для отправки сообщений необходимо включить JavaScript
Показать сообщения:    

Текущее время: 10-Дек 09:57

Часовой пояс: UTC + 3


Вы можете начинать темы
Вы можете отвечать на сообщения
Вы не можете редактировать свои сообщения
Вы не можете удалять свои сообщения
Вы не можете голосовать в опросах
Вы не можете прикреплять файлы к сообщениям
Вы можете скачивать файлы