(Soundtrack) Ангелы Чарли / Charlie\'s Angels (Charlie\'s Angels: Music From The Motion Picture) - 2000, FLAC (tracks+.cue), lossless


Статистика раздачи [Обновить пиров]
Размер:  430 MB   |    Зарегистрирован:  1 год 1 месяц   |    Скачан:  1 раз
Сидов:  1  [  0 KB/s  ]   Личеров:  4  [  0 KB/s  ]   Подробная статистика пиров
 
   
 
 
 

[Цитировать]

АНГЕЛЫ ЧАРЛИ................
...............CHAELIE'S ANGELS

Название альбома: Charlie's Angels: Music From The Motion Picture
Жанр: Soundtrack
Год выпуска диска: 2000
Год выпуска фильма: 2000
Страна-производитель диска: US
Издатель (лейбл): Columbia, Sony Music Soundtrax
Номер по каталогу: CK 61064, CK 61064
Аудиокодек: FLAC (*.flac)
Тип рипа: tracks+.cue
Битрейт аудио: lossless
Продолжительность: 00:58:28
Источник: собственный рип
Наличие сканов в содержимом раздачи: да - 600 dpi
.
.
Треклист:

01. Destiny's Child - Independent Women Part 1.
02. Tavares - Heaven Must Be Missing An Angel.
03. Leo Sayer - You Make Me Feel Like Dancing.
04. Spandau Ballet - True.
05. Destiny's Child - Dot.
06. Sir Mix-A-Lot - Baby Got Back.
07. Aerosmith - Angel's Eye.
08. Heart - Barracuda.
09. The Vapors - Turning Japanese.
10. Looking Glass - Brandy You're A Fine Girl.
11. Marvin Gaye - Got To Give It Up-Part 1.
12. Fatboy Slim - Ya Mama.
13. Deee-Lite - Groove Is In The Heart.
14. Apollo Four Forty - Charlie's Angels 2000.
15. Caviar - Tangerine Speedo.

Лог создания рипа

Exact Audio Copy V1.0 beta 3 from 29. August 2011
Отчёт EAC об извлечении, выполненном 21. октября 2015, 10:28
Various / Charlie's Angels (Original Soundtrack)
Дисковод: DVDRW DRW-6S160P Adapter: 7 ID: 0
Режим чтения : ДостоверностьИспользование точного потока : ДаОтключение кэша аудио : ДаИспользование указателей C2 : Нет
Коррекция смещения при чтении : 6Способность читать области Lead-in и Lead-out : НетЗаполнение пропущенных сэмплов тишиной : ДаУдаление блоков с тишиной в начале и конце : НетПри вычислениях CRC использовались нулевые сэмплы : ДаИнтерфейс : Установленный внешний ASPI-интерфейсОбработка зазоров : Добавлено к предыдущему треку
Выходной формат : Пользовательский кодировщикВыбранный битрейт : 128 kBit/sКачество : ВысокийДобавление ID3-тега : НетУтилита сжатия : C:\Program Files\Exact Audio Copy\FLAC\FLAC.EXEДополнительные параметры : -V -8 -T "Genre=%genre%" -T "Artist=%artist%" -T "Title=%title%" -T "Album=%albumtitle%" -T "Date=%year%" -T "Tracknumber=%tracknr%" -T "Comment=%comment%" %source%
TOC извлечённого CD
Трек | Старт | Длительность | Начальный сектор | Конечный сектор --------------------------------------------------------------------- 1 | 0:00.00 | 3:40.57 | 0 | 16556 2 | 3:40.57 | 3:32.10 | 16557 | 32466 3 | 7:12.67 | 2:51.08 | 32467 | 45299 4 | 10:04.00 | 5:32.55 | 45300 | 70254 5 | 15:36.55 | 3:50.00 | 70255 | 87504 6 | 19:26.55 | 4:21.60 | 87505 | 107139 7 | 23:48.40 | 3:22.25 | 107140 | 122314 8 | 27:10.65 | 4:22.35 | 122315 | 141999 9 | 31:33.25 | 3:42.20 | 142000 | 158669 10 | 35:15.45 | 3:22.20 | 158670 | 173839 11 | 38:37.65 | 4:12.55 | 173840 | 192794 12 | 42:50.45 | 4:29.25 | 192795 | 212994 13 | 47:19.70 | 3:52.52 | 212995 | 230446 14 | 51:12.47 | 3:57.00 | 230447 | 248221 15 | 55:09.47 | 3:18.68 | 248222 | 263139
Трек 1
Имя файла I:\MOI_RAZDACI\VA Charlie's Angels\VA_Charlie's.Angels_Music.From.The.Motion.Picture_2000\01. Destiny's Child - Independent Women Part 1.wav
Длина предзазора 0:00:02.00
Пиковый уровень 72.3 % Скорость извлечения 1.5 X Качество трека 99.9 % CRC теста EDAB1871 CRC копии EDAB1871 Точное извлечение (достоверность 28) [B3948509] (AR v2) Копирование... OK
Трек 2
Имя файла I:\MOI_RAZDACI\VA Charlie's Angels\VA_Charlie's.Angels_Music.From.The.Motion.Picture_2000\02. Tavares - Heaven Must Be Missing An Angel.wav
Длина предзазора 0:00:00.09
Пиковый уровень 93.2 % Скорость извлечения 1.5 X Качество трека 99.9 % CRC теста C0E86CDC CRC копии C0E86CDC Точное извлечение (достоверность 29) [013F74CB] (AR v2) Копирование... OK
Трек 3
Имя файла I:\MOI_RAZDACI\VA Charlie's Angels\VA_Charlie's.Angels_Music.From.The.Motion.Picture_2000\03. Leo Sayer - You Make Me Feel Like Dancing.wav
Длина предзазора 0:00:00.06
Пиковый уровень 96.5 % Скорость извлечения 2.1 X Качество трека 100.0 % CRC теста FF85F9A6 CRC копии FF85F9A6 Точное извлечение (достоверность 27) [806EBB89] (AR v2) Копирование... OK
Трек 4
Имя файла I:\MOI_RAZDACI\VA Charlie's Angels\VA_Charlie's.Angels_Music.From.The.Motion.Picture_2000\04. Spandau Ballet - True.wav
Длина предзазора 0:00:00.17
Пиковый уровень 96.5 % Скорость извлечения 2.2 X Качество трека 100.0 % CRC теста 55D69C87 CRC копии 55D69C87 Точное извлечение (достоверность 28) [6806CEA0] (AR v2) Копирование... OK
Трек 5
Имя файла I:\MOI_RAZDACI\VA Charlie's Angels\VA_Charlie's.Angels_Music.From.The.Motion.Picture_2000\05. Destiny's Child - Dot.wav
Длина предзазора 0:00:00.01
Пиковый уровень 76.6 % Скорость извлечения 2.1 X Качество трека 100.0 % CRC теста 4D84EA1A CRC копии 4D84EA1A Точное извлечение (достоверность 28) [CBE40C8D] (AR v2) Копирование... OK
Трек 6
Имя файла I:\MOI_RAZDACI\VA Charlie's Angels\VA_Charlie's.Angels_Music.From.The.Motion.Picture_2000\06. Sir Mix-A-Lot - Baby Got Back.wav
Длина предзазора 0:00:00.13
Пиковый уровень 95.4 % Скорость извлечения 2.2 X Качество трека 100.0 % CRC теста 06EB0E76 CRC копии 06EB0E76 Точное извлечение (достоверность 28) [1B9E9332] (AR v2) Копирование... OK
Трек 7
Имя файла I:\MOI_RAZDACI\VA Charlie's Angels\VA_Charlie's.Angels_Music.From.The.Motion.Picture_2000\07. Aerosmith - Angel's Eye.wav
Пиковый уровень 88.0 % Скорость извлечения 2.1 X Качество трека 100.0 % CRC теста 0803DAD8 CRC копии 0803DAD8 Точное извлечение (достоверность 28) [CA040261] (AR v2) Копирование... OK
Трек 8
Имя файла I:\MOI_RAZDACI\VA Charlie's Angels\VA_Charlie's.Angels_Music.From.The.Motion.Picture_2000\08. Heart - Barracuda.wav
Длина предзазора 0:00:00.20
Пиковый уровень 96.5 % Скорость извлечения 2.2 X Качество трека 100.0 % CRC теста 098DFCE0 CRC копии 098DFCE0 Точное извлечение (достоверность 28) [191472BC] (AR v2) Копирование... OK
Трек 9
Имя файла I:\MOI_RAZDACI\VA Charlie's Angels\VA_Charlie's.Angels_Music.From.The.Motion.Picture_2000\09. The Vapors - Turning Japanese.wav
Пиковый уровень 91.1 % Скорость извлечения 2.2 X Качество трека 100.0 % CRC теста 02BD4C62 CRC копии 02BD4C62 Точное извлечение (достоверность 28) [3811B619] (AR v2) Копирование... OK
Трек 10
Имя файла I:\MOI_RAZDACI\VA Charlie's Angels\VA_Charlie's.Angels_Music.From.The.Motion.Picture_2000\10. Looking Glass - Brandy You're A Fine Girl.wav
Длина предзазора 0:00:00.02
Пиковый уровень 96.5 % Скорость извлечения 2.1 X Качество трека 100.0 % CRC теста 009BE2FD CRC копии 009BE2FD Точное извлечение (достоверность 27) [3E4217C2] (AR v2) Копирование... OK
Трек 11
Имя файла I:\MOI_RAZDACI\VA Charlie's Angels\VA_Charlie's.Angels_Music.From.The.Motion.Picture_2000\11. Marvin Gaye - Got To Give It Up-Part 1.wav
Длина предзазора 0:00:00.09
Пиковый уровень 96.5 % Скорость извлечения 2.2 X Качество трека 100.0 % CRC теста EA5FB516 CRC копии EA5FB516 Точное извлечение (достоверность 28) [FA7E2E18] (AR v2) Копирование... OK
Трек 12
Имя файла I:\MOI_RAZDACI\VA Charlie's Angels\VA_Charlie's.Angels_Music.From.The.Motion.Picture_2000\12. Fatboy Slim - Ya Mama.wav
Пиковый уровень 88.0 % Скорость извлечения 2.2 X Качество трека 100.0 % CRC теста D5BCC57D CRC копии D5BCC57D Точное извлечение (достоверность 27) [9768B8C3] (AR v2) Копирование... OK
Трек 13
Имя файла I:\MOI_RAZDACI\VA Charlie's Angels\VA_Charlie's.Angels_Music.From.The.Motion.Picture_2000\13. Deee-Lite - Groove Is In The Heart.wav
Длина предзазора 0:00:01.54
Пиковый уровень 96.5 % Скорость извлечения 2.2 X Качество трека 100.0 % CRC теста EA48CA26 CRC копии EA48CA26 Точное извлечение (достоверность 27) [4CF0D9D0] (AR v2) Копирование... OK
Трек 14
Имя файла I:\MOI_RAZDACI\VA Charlie's Angels\VA_Charlie's.Angels_Music.From.The.Motion.Picture_2000\14. Apollo Four Forty - Charlie's Angels 2000.wav
Длина предзазора 0:00:00.16
Пиковый уровень 96.5 % Скорость извлечения 2.2 X Качество трека 100.0 % CRC теста 1A2938EB CRC копии 1A2938EB Точное извлечение (достоверность 29) [76B71836] (AR v2) Копирование... OK
Трек 15
Имя файла I:\MOI_RAZDACI\VA Charlie's Angels\VA_Charlie's.Angels_Music.From.The.Motion.Picture_2000\15. Caviar - Tangerine Speedo.wav
Длина предзазора 0:00:03.53
Пиковый уровень 96.5 % Скорость извлечения 1.4 X Качество трека 99.9 % CRC теста F6CC9C0C CRC копии F6CC9C0C Точное извлечение (достоверность 28) [A33D916D] (AR v2) Копирование... OK
Все треки извлечены точно
Ошибок не произошло
Конец отчёта
==== Контрольная сумма отчёта 108933B8665285575E0A69628EA7CEE0864C6285F24F15B8BDD97BD9AD8A84B3 ====

Содержание индексной карты (.CUE)

REM GENRE SoundtrackREM DATE 2000REM DISCID BD0DB40FREM COMMENT "ExactAudioCopy v1.0b3"PERFORMER "Various"TITLE "Charlie's Angels (Original Soundtrack)"FILE "01. Destiny's Child - Independent Women Part 1.wav" WAVE TRACK 01 AUDIO TITLE "Independent Women Part 1" PERFORMER "Destiny's Child" ISRC 5@435740=582 INDEX 01 00:00:00 TRACK 02 AUDIO TITLE "Heaven Must Be Missing An Angel " PERFORMER "Tavares" INDEX 00 03:40:48FILE "02. Tavares - Heaven Must Be Missing An Angel.wav" WAVE INDEX 01 00:00:00 TRACK 03 AUDIO TITLE "You Make Me Feel Like Dancing " PERFORMER "Leo Sayer" INDEX 00 03:32:04FILE "03. Leo Sayer - You Make Me Feel Like Dancing.wav" WAVE INDEX 01 00:00:00 TRACK 04 AUDIO TITLE "True " PERFORMER "Spandau Ballet" INDEX 00 02:50:66FILE "04. Spandau Ballet - True.wav" WAVE INDEX 01 00:00:00 TRACK 05 AUDIO TITLE "Dot " PERFORMER "Destiny's Child" ISRC 10400450?100 INDEX 00 05:32:54FILE "05. Destiny's Child - Dot.wav" WAVE INDEX 01 00:00:00 TRACK 06 AUDIO TITLE "Baby Got Back " PERFORMER "Sir Mix-A-Lot" INDEX 00 03:49:62FILE "06. Sir Mix-A-Lot - Baby Got Back.wav" WAVE INDEX 01 00:00:00FILE "07. Aerosmith - Angel's Eye.wav" WAVE TRACK 07 AUDIO TITLE "Angel's Eye " PERFORMER "Aerosmith" ISRC 1P400520?193 INDEX 01 00:00:00 TRACK 08 AUDIO TITLE "Barracuda " PERFORMER "Heart" ISRC 1P400520?193 INDEX 00 03:22:05FILE "08. Heart - Barracuda.wav" WAVE INDEX 01 00:00:00FILE "09. The Vapors - Turning Japanese.wav" WAVE TRACK 09 AUDIO TITLE "Turning Japanese " PERFORMER "The Vapors" INDEX 01 00:00:00 TRACK 10 AUDIO TITLE "Brandy You're A Fine Girl " PERFORMER "Looking Glass" INDEX 00 03:42:18FILE "10. Looking Glass - Brandy You're A Fine Girl.wav" WAVE INDEX 01 00:00:00 TRACK 11 AUDIO TITLE "Got To Give It Up-Part 1 " PERFORMER "Marvin Gaye" INDEX 00 03:22:11FILE "11. Marvin Gaye - Got To Give It Up-Part 1.wav" WAVE INDEX 01 00:00:00FILE "12. Fatboy Slim - Ya Mama.wav" WAVE TRACK 12 AUDIO TITLE "Ya Mama " PERFORMER "Fatboy Slim" INDEX 01 00:00:00 TRACK 13 AUDIO TITLE "Groove Is In The Heart " PERFORMER "Deee-Lite" INDEX 00 04:27:46FILE "13. Deee-Lite - Groove Is In The Heart.wav" WAVE INDEX 01 00:00:00 TRACK 14 AUDIO TITLE "Charlie's Angels 2000 " PERFORMER "Apollo Four Forty" INDEX 00 03:52:36FILE "14. Apollo Four Forty - Charlie's Angels 2000.wav" WAVE INDEX 01 00:00:00 TRACK 15 AUDIO TITLE "Tangerine Speedo " PERFORMER "Caviar" INDEX 00 03:53:22FILE "15. Caviar - Tangerine Speedo.wav" WAVE INDEX 01 00:00:00

Лог проверки качества

-----------------------
DON'T MODIFY THIS FILE
-----------------------
PERFORMER: auCDtect Task Manager, ver. 1.5.1RC6 build 1.5.1.7Copyright (c) 2008-2010 y-soft. All rights reservedhttp://y-soft.org
ANALYZER: auCDtect: CD records authenticity detector, version 0.8.2Copyright (c) 2004 Oleg Berngardt. All rights reserved.Copyright (c) 2004 Alexander Djourik. All rights reserved.
FILE: 15. Caviar - Tangerine Speedo.flac Size: 24622070 Hash: 0B3BE91CC76F35E5676A538DF74B57E3 Accuracy: -m0 Conclusion: CDDA 100% Signature: 4C9B6FF8404E0DA3DB78F49C19585C00D09C8776FILE: 14. Apollo Four Forty - Charlie's Angels 2000.flac Size: 26839347 Hash: DB22F34C487C484D9AB09DD46EFA3797 Accuracy: -m0 Conclusion: CDDA 100% Signature: 20C1D297EB420CCCFB59E4024295E562E3657DECFILE: 13. Deee-Lite - Groove Is In The Heart.flac Size: 24439079 Hash: FFC606B789F84F2125114C7F63C87EE2 Accuracy: -m0 Conclusion: CDDA 100% Signature: 06FD2F7399DA82017A8022077822EF30BBE2EDAAFILE: 12. Fatboy Slim - Ya Mama.flac Size: 33051688 Hash: 6D0B7404579C3EC1F238415246CC0B24 Accuracy: -m0 Conclusion: CDDA 100% Signature: BA593D9FBA0297AD7FB12263A6FF9860C0F2A31FFILE: 11. Marvin Gaye - Got To Give It Up-Part 1.flac Size: 28458843 Hash: E3ADE4BAA24F3FA8E3F3C3A87CC42E27 Accuracy: -m0 Conclusion: CDDA 100% Signature: 8E602C64AE55B2163208793392B8DC72CAF478AEFILE: 10. Looking Glass - Brandy You're A Fine Girl.flac Size: 22356030 Hash: 21691539D0CA3C133667C4071B9F5685 Accuracy: -m0 Conclusion: CDDA 100% Signature: E6C549BCFDCF328344B8167CFA45BB97BA95AB36FILE: 09. The Vapors - Turning Japanese.flac Size: 27885449 Hash: A84893BE66CBAB1C45069D9D4E6BC6E5 Accuracy: -m0 Conclusion: CDDA 99% Signature: 5029106A3BC91809F165CACBE70B95849BA32609FILE: 08. Heart - Barracuda.flac Size: 34217618 Hash: 9E10C2A52B47B84F03B00C5314F360C1 Accuracy: -m0 Conclusion: CDDA 100% Signature: 5D70653D7405284B0423542D33586EA96E2823C4FILE: 07. Aerosmith - Angel's Eye.flac Size: 26934488 Hash: 1E74048C1145096944C7B45FAA0ED0A1 Accuracy: -m0 Conclusion: CDDA 99% Signature: B741BA94C4EBC14B3B91E48F9FB1E5F048B50097FILE: 06. Sir Mix-A-Lot - Baby Got Back.flac Size: 30787990 Hash: C88911B9D29D746A9236729675E62DA8 Accuracy: -m0 Conclusion: CDDA 100% Signature: EB6FEFCFD7FEAEE1ED3E4FB119AFB47F47034C1FFILE: 05. Destiny's Child - Dot.flac Size: 27367630 Hash: 8C1FEFE7CFF49B7D3DEA9463C3585F3D Accuracy: -m0 Conclusion: CDDA 100% Signature: 6AD67367E0CE08AE31F1DED6D143BBBFF16D8EF0FILE: 04. Spandau Ballet - True.flac Size: 37867813 Hash: D9901464786889DFF7335AAA89AAD89F Accuracy: -m0 Conclusion: CDDA 100% Signature: 4CFD4BAADF746D386D8F793A7EA52D6CAA5E90F4FILE: 03. Leo Sayer - You Make Me Feel Like Dancing.flac Size: 20484980 Hash: 8EEB7AE2662FF3E3C6A3500A54153CDD Accuracy: -m0 Conclusion: CDDA 100% Signature: 654A3460FD711CE2EE3051563BC310728FC78DEBFILE: 02. Tavares - Heaven Must Be Missing An Angel.flac Size: 27109422 Hash: 409E06569A5853A1ADA76BDB7E41BA59 Accuracy: -m0 Conclusion: CDDA 100% Signature: FCB6F3F8C9E04F4F78D4DF5BD54DB54F88EBCA6CFILE: 01. Destiny's Child - Independent Women Part 1.flac Size: 25407580 Hash: 0C7FBBBCA1E5EE1290A8FD9B4B8A4390 Accuracy: -m0 Conclusion: CDDA 100% Signature: 0670072E867780F3BB530B9727E287FF14B6CC41
[teatrix.ru].t10233.torrent 
Торрент: Зарегистрирован [ 2015-11-01 20:51 ] · 7E5C1DE7F65306950975243BFBBEB604D9E3CE37

Скачать .torrent

Скачать

19 KB

Статус: проверено
Скачан: 1 раз
Размер: 430 MB
terms.php



Быстрый ответ

Имя:

      
Для отправки сообщений необходимо включить JavaScript
Показать сообщения:    

Текущее время: 09-Дек 16:36

Часовой пояс: UTC + 3


Вы можете начинать темы
Вы можете отвечать на сообщения
Вы не можете редактировать свои сообщения
Вы не можете удалять свои сообщения
Вы не можете голосовать в опросах
Вы не можете прикреплять файлы к сообщениям
Вы можете скачивать файлы