(Score) Право на наследие / Freeheld (by Hans Zimmer & Johnny Marr) - 2015, FLAC (tracks+.cue), lossless


Статистика раздачи [Обновить пиров]
Размер:  169 MB   |    Зарегистрирован:  1 год 1 месяц   |    Скачан:  1 раз

Полного источника не было: 3 месяца 18 дней

Личеров:  2  [  0 KB/s  ]   Подробная статистика пиров
 
   
 
 
 

[Цитировать]

Право на наследие / Freeheld-Жанр: Score
Композитор: Hans Zimmer & Johnny Marr
Год выпуска диска: 2015
Производитель диска: CD-R by Amazon, USA
Издатель (лейбл): WaterTower Music
Номер по каталогу: WTM39730-Аудиокодек: FLAC (*.flac)
Тип рипа: tracks+.cue
Битрейт аудио: lossless
Продолжительность: 00:27:41
Источник: собственный рип
Наличие сканов в содержимом раздачи: да, 600 dpi-Ссылки: Кинопоиск | IMDB | Wikipedia | SoundtrackCollector

Треклист

01. On The Case [0:04:39.26]
02. Can I Have Your Number [0:02:19.34]
03. House Hunting [0:03:10.45]
04. Can't Leave Her [0:07:18.68]
05. The Decision [0:03:07.35]
06. Justice [0:02:36.50]
07. Remembering [0:04:28.47]

Лог создания рипа

Exact Audio Copy V1.1 from 23. June 2015
EAC extraction logfile from 28. October 2015, 14:12
Hans Zimmer & Johnny Marr / Freeheld
Used drive : PLEXTOR CD-R PX-230A Adapter: 1 ID: 0
Read mode : SecureUtilize accurate stream : YesDefeat audio cache : YesMake use of C2 pointers : No
Read offset correction : 738Overread into Lead-In and Lead-Out : NoFill up missing offset samples with silence : YesDelete leading and trailing silent blocks : NoNull samples used in CRC calculations : YesUsed interface : Native Win32 interface for Win NT & 2000Gap handling : Appended to previous track
Used output format : User Defined EncoderSelected bitrate : 1024 kBit/sQuality : HighAdd ID3 tag : NoCommand line compressor : C:\Program Files\Exact Audio Copy\Flac\flac.exeAdditional command line options : -6 -V -T "ARTIST=%artist%" -T "TITLE=%title%" -T "ALBUM=%albumtitle%" -T "DATE=%year%"-T "TRACKNUMBER=%tracknr%" -T "GENRE=%genre%" -T "COMMENT=%comment%" -T "ALBUMARTIST=%albuminterpret%" -T "COMPOSER=%composer%"-T "DISCNUMBER=%cdnumber%" -T "TOTALDISCS=%totalcds%" -T "TOTALTRACKS=%numtracks%" %source% -o %dest%
TOC of the extracted CD
Track | Start | Length | Start sector | End sector --------------------------------------------------------- 1 | 0:00.00 | 4:39.26 | 0 | 20950 2 | 4:39.26 | 2:19.34 | 20951 | 31409 3 | 6:58.60 | 3:10.45 | 31410 | 45704 4 | 10:09.30 | 7:18.68 | 45705 | 78622 5 | 17:28.23 | 3:07.35 | 78623 | 92682 6 | 20:35.58 | 2:36.50 | 92683 | 104432 7 | 23:12.33 | 4:28.47 | 104433 | 124579
Track 1
Filename C:\Music\01 - On The Case.wav
Pre-gap length 0:00:02.00
Peak level 92.2 % Extraction speed 5.8 X Track quality 100.0 % Test CRC CEE994C3 Copy CRC CEE994C3 Track not present in AccurateRip database Copy OK
Track 2
Filename C:\Music\02 - Can I Have Your Number.wav
Peak level 51.9 % Extraction speed 5.0 X Track quality 99.9 % Test CRC 07665DEC Copy CRC 07665DEC Track not present in AccurateRip database Copy OK
Track 3
Filename C:\Music\03 - House Hunting.wav
Peak level 91.9 % Extraction speed 6.4 X Track quality 100.0 % Test CRC FACCC199 Copy CRC FACCC199 Track not present in AccurateRip database Copy OK
Track 4
Filename C:\Music\04 - Can't Leave Her.wav
Peak level 92.2 % Extraction speed 6.9 X Track quality 99.9 % Test CRC 71173806 Copy CRC 71173806 Track not present in AccurateRip database Copy OK
Track 5
Filename C:\Music\05 - The Decision.wav
Peak level 92.2 % Extraction speed 7.4 X Track quality 100.0 % Test CRC 75DAD974 Copy CRC 75DAD974 Track not present in AccurateRip database Copy OK
Track 6
Filename C:\Music\06 - Justice.wav
Peak level 78.4 % Extraction speed 6.5 X Track quality 99.9 % Test CRC 1CE27009 Copy CRC 1CE27009 Track not present in AccurateRip database Copy OK
Track 7
Filename C:\Music\07 - Remembering.wav
Peak level 92.2 % Extraction speed 7.2 X Track quality 99.9 % Test CRC FF3343BD Copy CRC FF3343BD Track not present in AccurateRip database Copy OK
None of the tracks are present in the AccurateRip database
No errors occurred
End of status report
---- CUETools DB Plugin V2.1.6
[CTDB TOCID: V5GbqcOygKTrGOekoInoUpyh5ps-] disk not present in databaseSubmit result: V5GbqcOygKTrGOekoInoUpyh5ps- has been uploaded
==== Log checksum AEF330297566A75C43E25A86307239D3C2B30177E54889EACA8BBD96685D4561 ====

Содержание индексной карты (.CUE)

REM GENRE SoundtrackREM DATE 2015REM DISCID 3F067D07REM COMMENT "ExactAudioCopy v1.1"PERFORMER "Hans Zimmer & Johnny Marr"TITLE "Freeheld"FILE "01 - On The Case.wav" WAVE TRACK 01 AUDIO TITLE "On The Case" PERFORMER "Hans Zimmer & Johnny Marr" INDEX 01 00:00:00FILE "02 - Can I Have Your Number.wav" WAVE TRACK 02 AUDIO TITLE "Can I Have Your Number" PERFORMER "Hans Zimmer & Johnny Marr" INDEX 01 00:00:00FILE "03 - House Hunting.wav" WAVE TRACK 03 AUDIO TITLE "House Hunting" PERFORMER "Hans Zimmer & Johnny Marr" INDEX 01 00:00:00FILE "04 - Can't Leave Her.wav" WAVE TRACK 04 AUDIO TITLE "Can't Leave Her" PERFORMER "Hans Zimmer & Johnny Marr" INDEX 01 00:00:00FILE "05 - The Decision.wav" WAVE TRACK 05 AUDIO TITLE "The Decision" PERFORMER "Hans Zimmer & Johnny Marr" INDEX 01 00:00:00FILE "06 - Justice.wav" WAVE TRACK 06 AUDIO TITLE "Justice" PERFORMER "Hans Zimmer & Johnny Marr" INDEX 01 00:00:00FILE "07 - Remembering.wav" WAVE TRACK 07 AUDIO TITLE "Remembering" PERFORMER "Hans Zimmer & Johnny Marr" INDEX 01 00:00:00
[teatrix.ru].t10236.torrent 
Торрент: Зарегистрирован [ 2015-11-01 20:51 ] · 19D8E54BCEBEA7465BE0E44A81EFE05B87685C86

Скачать .torrent

Скачать

5 KB

Статус: проверено
Скачан: 1 раз
Размер: 169 MB
terms.php



Быстрый ответ

Имя:

      
Для отправки сообщений необходимо включить JavaScript
Показать сообщения:    

Текущее время: 10-Дек 10:01

Часовой пояс: UTC + 3


Вы можете начинать темы
Вы можете отвечать на сообщения
Вы не можете редактировать свои сообщения
Вы не можете удалять свои сообщения
Вы не можете голосовать в опросах
Вы не можете прикреплять файлы к сообщениям
Вы можете скачивать файлы