(Soundtrack) 187 [One Eight Seven] Soundtracks / 187 (Various Artists) - 1997, FLAC (tracks+.cue), lossless


Статистика раздачи [Обновить пиров]
Размер:  339 MB   |    Зарегистрирован:  1 год 1 месяц   |    Скачан:  2 раза

Полного источника не было: 5 дней

Личеров:  2  [  0 KB/s  ]   Подробная статистика пиров
 
   
 
 
 

[Цитировать]

187 [One Eight Seven] Soundtracks / 187
Жанр: Soundtrack
Композитор: Various Artists
Год выпуска диска: 1997
Год выпуска фильма: 1997
Страна-производитель диска: USA
Издатель (лейбл): Icon Records
Аудиокодек: FLAC (*.flac)
Тип рипа: tracks+.cue
Битрейт аудио: lossless
Продолжительность: 00:53:46
источник: what.cd
Наличие сканов в содержимом раздачи: нет
Треклист:
1. Galliano - Slack Hands (4:47)
2. Massive Attack - Spying Glass (5:20)
3. Method Man - Release Yo Self (Prodigy Mix) (4:55)
4. DJ Shadow - Stem (3:25)
5. Everything But The Girl - Flipside (4:31)
6. Massive Attack - Karmacoma (5:21)
7. David Darling - In November (4:28)
8. Bang Bang - Neither Sing Sing Nor Baden Baden (5:57)
9. God Within - Raincry (5:40)
10. Madredeus - Pregao (4:03)
11. V-Love - The Wilderness (5:16)
12. Jalal - Mankind ( Part II) (5:02)

Лог создания рипа

Exact Audio Copy V1.0 beta 2 from 29. April 2011
EAC extraction logfile from 17. July 2011, 23:09
Various Artists / 187: Music From The Motion Picture
Used drive : TSSTcorpDVD+-RW TS-H653G Adapter: 0 ID: 1
Read mode : SecureUtilize accurate stream : YesDefeat audio cache : YesMake use of C2 pointers : No
Read offset correction : 6Overread into Lead-In and Lead-Out : NoFill up missing offset samples with silence : YesDelete leading and trailing silent blocks : NoNull samples used in CRC calculations : YesUsed interface : Native Win32 interface for Win NT & 2000Gap handling : Appended to previous track
Used output format : User Defined EncoderSelected bitrate : 1024 kBit/sQuality : HighAdd ID3 tag : NoCommand line compressor : C:\Program Files (x86)\Exact Audio Copy\Flac\flac.exeAdditional command line options : -8 -V -T "ARTIST=%artist%" -T "TITLE=%title%" -T "ALBUM=%albumtitle%" -T "DATE=%year%" -T "TRACKNUMBER=%tracknr%" -T "GENRE=%genre%" -T "PERFORMER=%albuminterpret%" -T "COMPOSER=%composer%" %haslyrics%--tag-from-file=LYRICS
TOC of the extracted CD
Track | Start | Length | Start sector | End sector --------------------------------------------------------- 1 | 0:00.32 | 4:46.63 | 32 | 21544 2 | 4:47.20 | 5:20.12 | 21545 | 45556 3 | 10:07.32 | 4:54.73 | 45557 | 67679 4 | 15:02.30 | 3:25.00 | 67680 | 83054 5 | 18:27.30 | 4:30.62 | 83055 | 103366 6 | 22:58.17 | 5:21.68 | 103367 | 127509 7 | 28:20.10 | 4:28.32 | 127510 | 147641 8 | 32:48.42 | 5:57.50 | 147642 | 174466 9 | 38:46.17 | 5:40.45 | 174467 | 200011 10 | 44:26.62 | 4:03.63 | 200012 | 218299 11 | 48:30.50 | 5:16.05 | 218300 | 242004 12 | 53:46.55 | 5:02.32 | 242005 | 264686
Track 1
Filename C:\Users\Owner\Downloads\Various Artists - 187 (1997) (flac)\01 - Galliano - Slack Hands.wav
Pre-gap length 0:00:02.32
Peak level 84.1 % Extraction speed 1.9 X Track quality 99.9 % Test CRC A57B47DA Copy CRC A57B47DA Accurately ripped (confidence 3) [86A6B75C] (AR v1) Copy OK
Track 2
Filename C:\Users\Owner\Downloads\Various Artists - 187 (1997) (flac)\02 - Massive Attack - Spying Glass.wav
Pre-gap length 0:00:01.32
Peak level 99.8 % Extraction speed 2.1 X Track quality 100.0 % Test CRC B3FB162D Copy CRC B3FB162D Accurately ripped (confidence 3) [88FD2598] (AR v1) Copy OK
Track 3
Filename C:\Users\Owner\Downloads\Various Artists - 187 (1997) (flac)\03 - Method Man - Release Yo Delf (Prodigy Mix).wav
Peak level 97.8 % Extraction speed 2.1 X Track quality 100.0 % Test CRC D16EFBF7 Copy CRC D16EFBF7 Accurately ripped (confidence 3) [A8F6CC29] (AR v1) Copy OK
Track 4
Filename C:\Users\Owner\Downloads\Various Artists - 187 (1997) (flac)\04 - DJ Shadow - Stem.wav
Peak level 87.5 % Extraction speed 2.0 X Track quality 100.0 % Test CRC A60B918E Copy CRC A60B918E Accurately ripped (confidence 3) [654F5D94] (AR v1) Copy OK
Track 5
Filename C:\Users\Owner\Downloads\Various Artists - 187 (1997) (flac)\05 - Everything But The Girl - Flipside.wav
Peak level 99.5 % Extraction speed 2.1 X Track quality 100.0 % Test CRC 5489A3FA Copy CRC 5489A3FA Accurately ripped (confidence 3) [EA7100CD] (AR v1) Copy OK
Track 6
Filename C:\Users\Owner\Downloads\Various Artists - 187 (1997) (flac)\06 - Massive Attack - Karmacoma.wav
Peak level 99.8 % Extraction speed 2.1 X Track quality 100.0 % Test CRC E0324C61 Copy CRC E0324C61 Accurately ripped (confidence 3) [AE1AAE04] (AR v1) Copy OK
Track 7
Filename C:\Users\Owner\Downloads\Various Artists - 187 (1997) (flac)\07 - David Darling - In November.wav
Pre-gap length 0:00:00.02
Peak level 95.4 % Extraction speed 2.0 X Track quality 100.0 % Test CRC 1816F0F3 Copy CRC 1816F0F3 Accurately ripped (confidence 3) [BB84E328] (AR v1) Copy OK
Track 8
Filename C:\Users\Owner\Downloads\Various Artists - 187 (1997) (flac)\08 - Bang Bang - Neither Sing Sing Nor Baden Baden.wav
Pre-gap length 0:00:00.17
Peak level 89.8 % Extraction speed 2.1 X Track quality 100.0 % Test CRC A7382D88 Copy CRC A7382D88 Accurately ripped (confidence 3) [BDF3328C] (AR v1) Copy OK
Track 9
Filename C:\Users\Owner\Downloads\Various Artists - 187 (1997) (flac)\09 - God Within - Raincry.wav
Pre-gap length 0:00:00.39
Peak level 80.2 % Extraction speed 1.9 X Track quality 99.9 % Test CRC D8B983E9 Copy CRC D8B983E9 Accurately ripped (confidence 3) [3B4387D4] (AR v1) Copy OK
Track 10
Filename C:\Users\Owner\Downloads\Various Artists - 187 (1997) (flac)\10 - Madredeus - Pregao.wav
Peak level 99.8 % Extraction speed 2.0 X Track quality 100.0 % Test CRC 480F2528 Copy CRC 480F2528 Accurately ripped (confidence 3) [DEF1F180] (AR v1) Copy OK
Track 11
Filename C:\Users\Owner\Downloads\Various Artists - 187 (1997) (flac)\11 - V-Love - The Wilderness.wav
Peak level 99.8 % Extraction speed 1.9 X Track quality 99.9 % Test CRC 58570C9A Copy CRC 58570C9A Accurately ripped (confidence 3) [4633B91C] (AR v1) Copy OK
Track 12
Filename C:\Users\Owner\Downloads\Various Artists - 187 (1997) (flac)\12 - Jalal - Mankind ( Part II).wav
Pre-gap length 0:00:00.45
Peak level 99.8 % Extraction speed 1.9 X Track quality 99.9 % Test CRC 41FF6032 Copy CRC 41FF6032 Accurately ripped (confidence 3) [FD25EBF5] (AR v1) Copy OK
All tracks accurately ripped
No errors occurred
End of status report
==== Log checksum 438259C16BD97D328E6C864FAE662E4DAB3326D683E56B941674B46ABE08C843 ====

Содержание индексной карты (.CUE)

REM GENRE SoundtrackREM DATE 1997REM DISCID A50DC90CREM COMMENT "ExactAudioCopy v1.0b2"CATALOG 0075679276025PERFORMER "Various Artists"TITLE "187: Music From The Motion Picture"FILE "01 - Galliano - Slack Hands.wav" WAVE TRACK 01 AUDIO TITLE "Slack Hands" PERFORMER "Galliano" PREGAP 00:00:32 INDEX 01 00:00:00 TRACK 02 AUDIO TITLE "Spying Glass" PERFORMER "Massive Attack" INDEX 00 04:45:31FILE "02 - Massive Attack - Spying Glass.wav" WAVE INDEX 01 00:00:00FILE "03 - Method Man - Release Yo Delf (Prodigy Mix).wav" WAVE TRACK 03 AUDIO TITLE "Release Yo Delf (Prodigy Mix)" PERFORMER "Method Man" INDEX 01 00:00:00FILE "04 - DJ Shadow - Stem.wav" WAVE TRACK 04 AUDIO TITLE "Stem" PERFORMER "DJ Shadow" INDEX 01 00:00:00FILE "05 - Everything But The Girl - Flipside.wav" WAVE TRACK 05 AUDIO TITLE "Flipside" PERFORMER "Everything But The Girl" INDEX 01 00:00:00FILE "06 - Massive Attack - Karmacoma.wav" WAVE TRACK 06 AUDIO TITLE "Karmacoma" PERFORMER "Massive Attack" INDEX 01 00:00:00 TRACK 07 AUDIO TITLE "In November" PERFORMER "David Darling" INDEX 00 05:21:66FILE "07 - David Darling - In November.wav" WAVE INDEX 01 00:00:00 TRACK 08 AUDIO TITLE "Neither Sing Sing Nor Baden Baden" PERFORMER "Bang Bang" INDEX 00 04:28:15FILE "08 - Bang Bang - Neither Sing Sing Nor Baden Baden.wav" WAVE INDEX 01 00:00:00 TRACK 09 AUDIO TITLE "Raincry" PERFORMER "God Within" INDEX 00 05:57:11FILE "09 - God Within - Raincry.wav" WAVE INDEX 01 00:00:00FILE "10 - Madredeus - Pregao.wav" WAVE TRACK 10 AUDIO TITLE "Pregao" PERFORMER "Madredeus" INDEX 01 00:00:00FILE "11 - V-Love - The Wilderness.wav" WAVE TRACK 11 AUDIO TITLE "The Wilderness" PERFORMER "V-Love" INDEX 01 00:00:00 TRACK 12 AUDIO TITLE "Mankind ( Part II)" PERFORMER "Jalal" INDEX 00 05:15:35FILE "12 - Jalal - Mankind ( Part II).wav" WAVE INDEX 01 00:00:00
C раздачи ушёл.
[teatrix.ru].t10238.torrent 
Торрент: Зарегистрирован [ 2015-11-01 20:51 ] · C9D5AC894F2AC9F58AF9FCBFF220D5DD4468209D

Скачать .torrent

Скачать

15 KB

Статус: проверено
Скачан: 2 раз
Размер: 339 MB
terms.php



Быстрый ответ

Имя:

      
Для отправки сообщений необходимо включить JavaScript
Показать сообщения:    

Текущее время: 10-Дек 02:13

Часовой пояс: UTC + 3


Вы можете начинать темы
Вы можете отвечать на сообщения
Вы не можете редактировать свои сообщения
Вы не можете удалять свои сообщения
Вы не можете голосовать в опросах
Вы не можете прикреплять файлы к сообщениям
Вы можете скачивать файлы