(Soundtrack) Various Artists - Cine Classics Standards - 2005, FLAC (tracks+.cue), lossless


Статистика раздачи [Обновить пиров]
Размер:  217 MB   |    Зарегистрирован:  1 год 1 месяц   |    Скачан:  0 раз

Полного источника не было: Никогда

Личеров:  2  [  0 KB/s  ]   Подробная статистика пиров
 
   
 
 
 

[Цитировать]

Various Artists - Cine Classics Standards
Название альбома: Cine Classics Standards
Жанр: Soundtrack
Композитор: Various Artists
Год выпуска диска: 2005
Аудиокодек: FLAC (*.flac)
Тип рипа:tracks+.cue
Битрейт аудио: lossless
Продолжительность: 00:42:05
Источник: internet
Наличие сканов в содержимом раздачи: да
Треклист:
1. Love Is A Many Splendored Thing - The Lettermen (Do Filme: Suplício de Uma Saudade) [02:38]
2. Over The Rainbow - Judy Garland (Do Filme: O Mágico de Oz) [03:30]
3. It Might As Wel Be Spring - Margareth Whiting (Do Filme: Corações Enamorados) [03:12]
4. Moon River - Billy May (Do Filme: Bonequinha de Luxo) [02:46]
5. Days Of Wine And Roses - Tony Bennett (Do Filme: Vício Maldito) [02:57]
6. Secret Love - Doris Day (Do Filme: Ardida Como Pimenta) [03:02]
7. Three Coins In The Fountain - The Four Aces (Do Filme: A Fonte dos Desejos) [03:12]
8. The Last Time I Saw Paris - Connie Francis ((Do Filme: A Última Vez Que Vi Paris) [02:39]
9. When You Wish Upon A Star - Johnny Mathis (Do Filme: Pinóquio) [03:40]
10. You Do Something To Me - The Andrews Sisters (Do Filme: Can Can) [02:50]
11 . True Love - Dean Martin (Do Filme: Alta Sociedade) [02:31]
12 . Lullaby Of Broadway - Helen O'connell (Do Filme: As Cavadoras de Ouro de 1935) [03:03]
13 . The Continental - Fred Astaire (Do Filme: A Alegre Divorciada) [03:32]
14 . Getting To Know You - Nancy Wilson (Do Filme: O Rei e Eu) [02:32]

Лог создания рипа

Exact Audio Copy V1.1 from 23. June 2015
EAC extraction logfile from 14. September 2015, 19:26
Various Artists / Cine Classics Standards
Used drive : HL-DT-STDVDRAM GA50N Adapter: 1 ID: 0
Read mode : SecureUtilize accurate stream : YesDefeat audio cache : NoMake use of C2 pointers : No
Read offset correction : 6Overread into Lead-In and Lead-Out : NoFill up missing offset samples with silence : YesDelete leading and trailing silent blocks : NoNull samples used in CRC calculations : YesUsed interface : Native Win32 interface for Win NT & 2000Gap handling : Not detected, thus appended to previous track
Used output format : User Defined EncoderSelected bitrate : 768 kBit/sQuality : HighAdd ID3 tag : NoCommand line compressor : C:\Program Files (x86)\Exact Audio Copy\FLAC\FLAC.EXEAdditional command line options : -6 -V -T "ARTIST=%artist%" -T "TITLE=%title%" -T "ALBUM=%albumtitle%" -T "DATE=%year%" -T "TRACKNUMBER=%tracknr%" -T "GENRE=%genre%" -T "COMMENT=%comment%" -T "BAND=%albuminterpret%" -T "ALBUMARTIST=%albuminterpret%" -T "COMPOSER=%composer%" %haslyrics%--tag-from-file=LYRICS="%lyricsfile%"%haslyrics% -T "DISCNUMBER=%cdnumber%" -T "TOTALDISCS=%totalcds%" -T "TOTALTRACKS=%numtracks%" %hascover%--picture="%coverfile%"%hascover% %source% -o %dest%
TOC of the extracted CD
Track | Start | Length | Start sector | End sector --------------------------------------------------------- 1 | 0:00.00 | 2:37.49 | 0 | 11823 2 | 2:37.49 | 3:30.01 | 11824 | 27574 3 | 6:07.50 | 3:11.46 | 27575 | 41945 4 | 9:19.21 | 2:46.09 | 41946 | 54404 5 | 12:05.30 | 2:56.51 | 54405 | 67655 6 | 15:02.06 | 3:02.26 | 67656 | 81331 7 | 18:04.32 | 3:12.16 | 81332 | 95747 8 | 21:16.48 | 2:39.28 | 95748 | 107700 9 | 23:56.01 | 3:39.40 | 107701 | 124165 10 | 27:35.41 | 2:50.29 | 124166 | 136944 11 | 30:25.70 | 2:31.36 | 136945 | 148305 12 | 32:57.31 | 3:03.08 | 148306 | 162038 13 | 36:00.39 | 3:31.68 | 162039 | 177931 14 | 39:32.32 | 2:32.25 | 177932 | 189356
Track 1
Filename E:\MY EAC[.FLAC]\Various Artists - Cine Classic Standards\1 Love Is A Many Splendored Thing - The Lettermen (Do Filme- Suplício de Uma Saudade) Various Artists.flac
Peak level 100.0 % Extraction speed 1.9 X Track quality 100.0 % Test CRC 1C75E7D9 Copy CRC 1C75E7D9 Accurately ripped (confidence 2) [F36E0180] (AR v1) Copy OK
Track 2
Filename E:\MY EAC[.FLAC]\Various Artists - Cine Classic Standards\2 Over The Rainbow - Judy Garland (Do Filme- O Mágico de Oz) Various Artists.flac
Peak level 100.0 % Extraction speed 2.1 X Track quality 100.0 % Test CRC 947BB9A9 Copy CRC 947BB9A9 Accurately ripped (confidence 2) [1FA09FA3] (AR v1) Copy OK
Track 3
Filename E:\MY EAC[.FLAC]\Various Artists - Cine Classic Standards\3 It Might As Wel Be Spring - Margareth Whiting (Do Filme- Corações Enamorados) Various Artists.flac
Peak level 99.9 % Extraction speed 2.3 X Track quality 100.0 % Test CRC AF4B3DB4 Copy CRC AF4B3DB4 Accurately ripped (confidence 2) [EA2FFA78] (AR v1) Copy OK
Track 4
Filename E:\MY EAC[.FLAC]\Various Artists - Cine Classic Standards\4 Moon River - Billy May (Do Filme- Bonequinha de Luxo) Various Artists.flac
Peak level 99.9 % Extraction speed 2.5 X Track quality 100.0 % Test CRC 1A55281D Copy CRC 1A55281D Accurately ripped (confidence 2) [6E0AF34F] (AR v1) Copy OK
Track 5
Filename E:\MY EAC[.FLAC]\Various Artists - Cine Classic Standards\5 Days Of Wine And Roses - Tony Bennett (Do Filme- Vício Maldito) Various Artists.flac
Peak level 100.0 % Extraction speed 2.6 X Track quality 100.0 % Test CRC 8C081362 Copy CRC 8C081362 Accurately ripped (confidence 2) [989B3130] (AR v1) Copy OK
Track 6
Filename E:\MY EAC[.FLAC]\Various Artists - Cine Classic Standards\6 Secret Love - Doris Day (Do Filme- Ardida Como Pimenta) Various Artists.flac
Peak level 99.9 % Extraction speed 2.8 X Track quality 100.0 % Test CRC BDC778F1 Copy CRC BDC778F1 Accurately ripped (confidence 2) [0A059751] (AR v1) Copy OK
Track 7
Filename E:\MY EAC[.FLAC]\Various Artists - Cine Classic Standards\7 Three Coins In The Fountain - The Four Aces (Do Filme- A Fonte dos Desejos) Various Artists.flac
Peak level 99.9 % Extraction speed 2.8 X Track quality 99.9 % Test CRC 814D23EA Copy CRC 814D23EA Accurately ripped (confidence 2) [A21C6B83] (AR v1) Copy OK
Track 8
Filename E:\MY EAC[.FLAC]\Various Artists - Cine Classic Standards\8 The Last Time I Saw Paris - Connie Francis ((Do Filme- A Última Vez Que Vi Paris) Various Artists.flac
Peak level 100.0 % Extraction speed 2.9 X Track quality 99.9 % Test CRC 1407D778 Copy CRC 1407D778 Accurately ripped (confidence 2) [E7D7E9CE] (AR v1) Copy OK
Track 9
Filename E:\MY EAC[.FLAC]\Various Artists - Cine Classic Standards\9 When You Wish Upon A Star - Johnny Mathis (Do Filme- Pinóquio) Various Artists.flac
Peak level 99.9 % Extraction speed 3.1 X Track quality 100.0 % Test CRC 01BE6A05 Copy CRC 01BE6A05 Accurately ripped (confidence 2) [BE7FD915] (AR v1) Copy OK
Track 10
Filename E:\MY EAC[.FLAC]\Various Artists - Cine Classic Standards\10 You Do Something To Me - The Andrews Sisters (Do Filme- Can Can) Various Artists.flac
Peak level 100.0 % Extraction speed 3.3 X Track quality 100.0 % Test CRC 04D2F744 Copy CRC 04D2F744 Accurately ripped (confidence 2) [9A6BC981] (AR v1) Copy OK
Track 11
Filename E:\MY EAC[.FLAC]\Various Artists - Cine Classic Standards\11 True Love - Dean Martin (Do Filme- Alta Sociedade) Various Artists.flac
Peak level 99.9 % Extraction speed 3.4 X Track quality 100.0 % Test CRC 0070D7DE Copy CRC 0070D7DE Accurately ripped (confidence 2) [3598C1DF] (AR v1) Copy OK
Track 12
Filename E:\MY EAC[.FLAC]\Various Artists - Cine Classic Standards\12 Lullaby Of Broadway - Helen O'connell (Do Filme- As Cavadoras de Ouro de 1935) Various Artists.flac
Peak level 100.0 % Extraction speed 3.4 X Track quality 100.0 % Test CRC 5A88CEA1 Copy CRC 5A88CEA1 Accurately ripped (confidence 2) [E2A88AC5] (AR v1) Copy OK
Track 13
Filename E:\MY EAC[.FLAC]\Various Artists - Cine Classic Standards\13 The Continental - Fred Astaire (Do Filme- A Alegre Divorciada) Various Artists.flac
Peak level 100.0 % Extraction speed 3.6 X Track quality 100.0 % Test CRC 553A8BED Copy CRC 553A8BED Accurately ripped (confidence 2) [D9EF8B56] (AR v1) Copy OK
Track 14
Filename E:\MY EAC[.FLAC]\Various Artists - Cine Classic Standards\14 Getting To Know You - Nancy Wilson (Do Filme- O Rei e Eu) Various Artists.flac
Peak level 99.9 % Extraction speed 3.6 X Track quality 100.0 % Test CRC 11646927 Copy CRC 11646927 Accurately ripped (confidence 2) [7F10FF66] (AR v1) Copy OK
All tracks accurately ripped
No errors occurred
End of status report
==== Log checksum 009870D5137682E2691F1953850E8ECD60AD99895DCCEDE4A14449EF725F71C3 ====

Audiochecker log

AUDIOCHECKER v2.0 beta (build 457) - by Dester - opdester@freemail.hu
~~~~~~~~~~~~~~~~~~~~~~~~~~~~~~~~~~
Started at: суббота, 31. 10. 2015. - 11:03.17
14 files found
01 -===- F:\ЯЯЯЯ\Various Artists - Cine Classic Standards\1 Love Is A Many Splendored Thing - The Lettermen (Do Filme- Suplicio de Uma Saudade) Various Artists.flac
Error while extracting! Check your rights, free some space if needed and ensure the file is valid.
02 -===- F:\ЯЯЯЯ\Various Artists - Cine Classic Standards\2 Over The Rainbow - Judy Garland (Do Filme- O Magico de Oz) Various Artists.flac
Error while extracting! Check your rights, free some space if needed and ensure the file is valid.
03 -===- F:\ЯЯЯЯ\Various Artists - Cine Classic Standards\3 It Might As Wel Be Spring - Margareth Whiting (Do Filme- Coracoes Enamorados) Various Artists.flac
Error while extracting! Check your rights, free some space if needed and ensure the file is valid.
04 -===- F:\ЯЯЯЯ\Various Artists - Cine Classic Standards\4 Moon River - Billy May (Do Filme- Bonequinha de Luxo) Various Artists.flac
Extracted successfully
Conclusion: this track is CDDA with probability 100%
Tempfile successfully deleted.
05 -===- F:\ЯЯЯЯ\Various Artists - Cine Classic Standards\5 Days Of Wine And Roses - Tony Bennett (Do Filme- Vicio Maldito) Various Artists.flac
Error while extracting! Check your rights, free some space if needed and ensure the file is valid.
06 -===- F:\ЯЯЯЯ\Various Artists - Cine Classic Standards\6 Secret Love - Doris Day (Do Filme- Ardida Como Pimenta) Various Artists.flac
Extracted successfully
Conclusion: this track is CDDA with probability 100%
Tempfile successfully deleted.
07 -===- F:\ЯЯЯЯ\Various Artists - Cine Classic Standards\7 Three Coins In The Fountain - The Four Aces (Do Filme- A Fonte dos Desejos) Various Artists.flac
Extracted successfully
Conclusion: this track is CDDA with probability 100%
Tempfile successfully deleted.
08 -===- F:\ЯЯЯЯ\Various Artists - Cine Classic Standards\8 The Last Time I Saw Paris - Connie Francis ((Do Filme- A Ultima Vez Que Vi Paris) Various Artists.flac
Error while extracting! Check your rights, free some space if needed and ensure the file is valid.
09 -===- F:\ЯЯЯЯ\Various Artists - Cine Classic Standards\9 When You Wish Upon A Star - Johnny Mathis (Do Filme- Pinoquio) Various Artists.flac
Error while extracting! Check your rights, free some space if needed and ensure the file is valid.
10 -===- F:\ЯЯЯЯ\Various Artists - Cine Classic Standards\10 You Do Something To Me - The Andrews Sisters (Do Filme- Can Can) Various Artists.flac
Extracted successfully
Conclusion: this track is CDDA with probability 100%
Tempfile successfully deleted.
11 -===- F:\ЯЯЯЯ\Various Artists - Cine Classic Standards\11 True Love - Dean Martin (Do Filme- Alta Sociedade) Various Artists.flac
Extracted successfully
Conclusion: this track is CDDA with probability 100%
Tempfile successfully deleted.
12 -===- F:\ЯЯЯЯ\Various Artists - Cine Classic Standards\12 Lullaby Of Broadway - Helen O'connell (Do Filme- As Cavadoras de Ouro de 1935) Various Artists.flac
Extracted successfully
Conclusion: this track is CDDA with probability 100%
Tempfile successfully deleted.
13 -===- F:\ЯЯЯЯ\Various Artists - Cine Classic Standards\13 The Continental - Fred Astaire (Do Filme- A Alegre Divorciada) Various Artists.flac
Extracted successfully
Conclusion: this track is CDDA with probability 99%
Tempfile successfully deleted.
14 -===- F:\ЯЯЯЯ\Various Artists - Cine Classic Standards\14 Getting To Know You - Nancy Wilson (Do Filme- O Rei e Eu) Various Artists.flac
Extracted successfully
Conclusion: this track is CDDA with probability 100%
Tempfile successfully deleted.
Finished at: суббота, 31. 10. 2015. - 11:05.42 (operation time: 0:02.24)

Содержание индексной карты (.CUE)

REM GENRE SoundtrackREM DATE 2005REM DISCID D709DC0EREM COMMENT "ExactAudioCopy v1.1"PERFORMER "Various Artists"TITLE "Cine Classics Standards"FILE "1 Love Is A Many Splendored Thing - The Lettermen (Do Filme- Suplнcio de Uma Saudade) Various Artists.wav" WAVE TRACK 01 AUDIO TITLE "Love Is A Many Splendored Thing - The Lettermen (Do Filme: Suplнcio de Uma Sa..." PERFORMER "Various Artists" INDEX 01 00:00:00FILE "2 Over The Rainbow - Judy Garland (Do Filme- O Mбgico de Oz) Various Artists.wav" WAVE TRACK 02 AUDIO TITLE "Over The Rainbow - Judy Garland (Do Filme: O Mбgico de Oz)" PERFORMER "Various Artists" INDEX 01 00:00:00FILE "3 It Might As Wel Be Spring - Margareth Whiting (Do Filme- Coraзхes Enamorados) Various Artists.wav" WAVE TRACK 03 AUDIO TITLE "It Might As Wel Be Spring - Margareth Whiting (Do Filme: Coraзхes Enamorados)" PERFORMER "Various Artists" INDEX 01 00:00:00FILE "4 Moon River - Billy May (Do Filme- Bonequinha de Luxo) Various Artists.wav" WAVE TRACK 04 AUDIO TITLE "Moon River - Billy May (Do Filme: Bonequinha de Luxo)" PERFORMER "Various Artists" INDEX 01 00:00:00FILE "5 Days Of Wine And Roses - Tony Bennett (Do Filme- Vнcio Maldito) Various Artists.wav" WAVE TRACK 05 AUDIO TITLE "Days Of Wine And Roses - Tony Bennett (Do Filme: Vнcio Maldito)" PERFORMER "Various Artists" INDEX 01 00:00:00FILE "6 Secret Love - Doris Day (Do Filme- Ardida Como Pimenta) Various Artists.wav" WAVE TRACK 06 AUDIO TITLE "Secret Love - Doris Day (Do Filme: Ardida Como Pimenta)" PERFORMER "Various Artists" INDEX 01 00:00:00FILE "7 Three Coins In The Fountain - The Four Aces (Do Filme- A Fonte dos Desejos) Various Artists.wav" WAVE TRACK 07 AUDIO TITLE "Three Coins In The Fountain - The Four Aces (Do Filme: A Fonte dos Desejos)" PERFORMER "Various Artists" INDEX 01 00:00:00FILE "8 The Last Time I Saw Paris - Connie Francis ((Do Filme- A Ъltima Vez Que Vi Paris) Various Artists.wav" WAVE TRACK 08 AUDIO TITLE "The Last Time I Saw Paris - Connie Francis ((Do Filme: A Ъltima Vez Que Vi Pa..." PERFORMER "Various Artists" INDEX 01 00:00:00FILE "9 When You Wish Upon A Star - Johnny Mathis (Do Filme- Pinуquio) Various Artists.wav" WAVE TRACK 09 AUDIO TITLE "When You Wish Upon A Star - Johnny Mathis (Do Filme: Pinуquio)" PERFORMER "Various Artists" INDEX 01 00:00:00FILE "10 You Do Something To Me - The Andrews Sisters (Do Filme- Can Can) Various Artists.wav" WAVE TRACK 10 AUDIO TITLE "You Do Something To Me - The Andrews Sisters (Do Filme: Can Can)" PERFORMER "Various Artists" INDEX 01 00:00:00FILE "11 True Love - Dean Martin (Do Filme- Alta Sociedade) Various Artists.wav" WAVE TRACK 11 AUDIO TITLE "True Love - Dean Martin (Do Filme: Alta Sociedade)" PERFORMER "Various Artists" INDEX 01 00:00:00FILE "12 Lullaby Of Broadway - Helen O'connell (Do Filme- As Cavadoras de Ouro de 1935) Various Artists.wav" WAVE TRACK 12 AUDIO TITLE "Lullaby Of Broadway - Helen O'connell (Do Filme: As Cavadoras de Ouro de 1935)" PERFORMER "Various Artists" INDEX 01 00:00:00FILE "13 The Continental - Fred Astaire (Do Filme- A Alegre Divorciada) Various Artists.wav" WAVE TRACK 13 AUDIO TITLE "The Continental - Fred Astaire (Do Filme: A Alegre Divorciada)" PERFORMER "Various Artists" INDEX 01 00:00:00FILE "14 Getting To Know You - Nancy Wilson (Do Filme- O Rei e Eu) Various Artists.wav" WAVE TRACK 14 AUDIO TITLE "Getting To Know You - Nancy Wilson (Do Filme: O Rei e Eu)" PERFORMER "Various Artists" INDEX 01 00:00:00
[teatrix.ru].t10239.torrent 
Торрент: Зарегистрирован [ 2015-11-01 20:51 ] · 749687F0844F64110C9E379C1C7594DE6C1180FF

Скачать .torrent

Скачать

20 KB

Статус: проверено
Скачан: 0 раз
Размер: 217 MB
terms.php



Быстрый ответ

Имя:

      
Для отправки сообщений необходимо включить JavaScript
Показать сообщения:    

Текущее время: 09-Дек 12:45

Часовой пояс: UTC + 3


Вы можете начинать темы
Вы можете отвечать на сообщения
Вы не можете редактировать свои сообщения
Вы не можете удалять свои сообщения
Вы не можете голосовать в опросах
Вы не можете прикреплять файлы к сообщениям
Вы можете скачивать файлы