(Score) Волшебный сад Тома / Tom's Midnight Garden (by Debbie Wiseman) - 2000 (1999), WavPack (image+.cue), lossless


Статистика раздачи [Обновить пиров]
Размер:  301 MB   |    Зарегистрирован:  1 год 1 месяц   |    Скачан:  0 раз

Полного источника не было: Никогда

Личеров:  2  [  0 KB/s  ]   Подробная статистика пиров
 
   
 
 
 

[Цитировать]

Волшебный сад Тома / Tom's Midnight Garden
Жанр: Score
Композитор: Debbie Wiseman
Год выпуска диска: 2000
Год выпуска фильма: 1999
Страна-производитель диска: Великобритания
Издатель (лейбл): First Night Records
Номер по каталогу: REELCD 103
Аудиокодек: WavPack (*.wv)
Тип рипа: image+.cue
Битрейт аудио: lossless
Продолжительность: 56:37
Источник: ослосеть
Наличие сканов в содержимом раздачи: да
Треклист:
01. Tom's Midnight Garden (02:44)
02. Extraordinary Discovery (05:23)
03. Fulfilment of a Promise (03:10)
04. Please Don't Walk Through Me (01:19)
05. The Thirteenth Chime (04:20)
06. Gentleman of the City (04:27)
07. After Always (03:46)
Performed by Barbara Dickson with Miriam Stockley
08. Beyond the Garden Wall (03:47)
09. Time for Eternity (03:05)
10. Writing to Peter (02:08)
11. Time no Longer (02:37)
12. Invisible Tom (02:17)
13. A Garden Waiting For You (03:43)
14. Goodnight, Miss Hatty (01:54)
15. Leave me Alone (02:42)
16. I Can See Everybody, and Nobody Can See Me (01:31)
17. Return to Gage Street (04:27)
18. Trixie (03:10)

Лог создания рипа

EAC extraction logfile from 23. September 2006, 21:26 for CDDebbie Wiseman / Tom's Midnight Garden
Used drive : PLEXTOR CD-R PREMIUM Adapter: 4 ID: 1Read mode : Secure with NO C2, accurate stream, disable cacheRead offset correction : 30Overread into Lead-In and Lead-Out : No
Used output format : Internal WAV Routines 44.100 Hz; 16 Bit; Stereo
Other options : Fill up missing offset samples with silence : Yes Delete leading and trailing silent blocks : No Installed external ASPI interface
Range status and errorsSelected range Filename M:\[vesperus]Debbie Wiseman - Tom's Midnight Garden\Debbie Wiseman - Tom's Midnight Garden\Debbie Wiseman - Tom's Midnight Garden.wav
Peak level 100.0 % Range quality 100.0 % CRC 0BDE6702 Copy OK
No errors occured
End of status report

Содержание индексной карты (.CUE)

REM GENRE SoundtrackREM DATE 2000REM DISCID 0F0D4412REM COMMENT "ExactAudioCopy v0.95b3"PERFORMER "Debbie Wiseman"TITLE "Tom's Midnight Garden"FILE "Debbie Wiseman - Tom's Midnight Garden.wv" WAVE TRACK 01 AUDIO TITLE "Tom's Midnight Garden" PERFORMER "Debbie Wiseman" INDEX 01 00:00:00 TRACK 02 AUDIO TITLE "Extraordinary Discovery" PERFORMER "Debbie Wiseman" INDEX 00 02:42:33 INDEX 01 02:44:12 TRACK 03 AUDIO TITLE "Fulfilment of a Promise" PERFORMER "Debbie Wiseman" INDEX 00 08:05:61 INDEX 01 08:07:25 TRACK 04 AUDIO TITLE "Please Don't Walk Throught Me" PERFORMER "Debbie Wiseman" INDEX 00 11:15:62 INDEX 01 11:17:27 TRACK 05 AUDIO TITLE "The Thirteenth Chime" PERFORMER "Debbie Wiseman" INDEX 00 12:35:23 INDEX 01 12:37:00 TRACK 06 AUDIO TITLE "Gentleman of the City" PERFORMER "Debbie Wiseman" INDEX 00 16:55:69 INDEX 01 16:57:32 TRACK 07 AUDIO TITLE "After Always" PERFORMER "Debbie Wiseman" INDEX 00 21:23:46 INDEX 01 21:25:15 TRACK 08 AUDIO TITLE "Beyond the Garden Wall" PERFORMER "Debbie Wiseman" INDEX 00 25:09:69 INDEX 01 25:11:22 TRACK 09 AUDIO TITLE "Time for Eternity" PERFORMER "Debbie Wiseman" INDEX 00 28:57:16 INDEX 01 28:58:60 TRACK 10 AUDIO TITLE "Writing to Peter" PERFORMER "Debbie Wiseman" INDEX 00 32:03:21 INDEX 01 32:04:57 TRACK 11 AUDIO TITLE "Time No Longer" PERFORMER "Debbie Wiseman" INDEX 00 34:12:03 INDEX 01 34:13:37 TRACK 12 AUDIO TITLE "Invisible Tom" PERFORMER "Debbie Wiseman" INDEX 00 36:49:40 INDEX 01 36:51:00 TRACK 13 AUDIO TITLE "A Garden Waiting for You" PERFORMER "Debbie Wiseman" INDEX 00 39:06:51 INDEX 01 39:08:10 TRACK 14 AUDIO TITLE "Goodnight, Miss Hatty" PERFORMER "Debbie Wiseman" INDEX 00 42:50:37 INDEX 01 42:52:07 TRACK 15 AUDIO TITLE "Leave Me Alone" PERFORMER "Debbie Wiseman" INDEX 00 44:44:34 INDEX 01 44:46:07 TRACK 16 AUDIO TITLE "ICan See Everybody, and Nobody Can See Me" PERFORMER "Debbie Wiseman" INDEX 00 47:25:63 INDEX 01 47:27:20 TRACK 17 AUDIO TITLE "Return to Gage Street" PERFORMER "Debbie Wiseman" INDEX 00 48:56:44 INDEX 01 48:58:22 TRACK 18 AUDIO TITLE "Trixie" PERFORMER "Debbie Wiseman" INDEX 00 53:24:33 INDEX 01 53:25:72

Скриншоты спектра частот (png)

[teatrix.ru].t10240.torrent 
Торрент: Зарегистрирован [ 2015-11-01 20:51 ] · CB5613AB526A2BE823BC1050CA07B4CDB5FF99E0

Скачать .torrent

Скачать

13 KB

Статус: проверено
Скачан: 0 раз
Размер: 301 MB
terms.php



Быстрый ответ

Имя:

      
Для отправки сообщений необходимо включить JavaScript
Показать сообщения:    

Текущее время: 07-Дек 15:35

Часовой пояс: UTC + 3


Вы можете начинать темы
Вы можете отвечать на сообщения
Вы не можете редактировать свои сообщения
Вы не можете удалять свои сообщения
Вы не можете голосовать в опросах
Вы не можете прикреплять файлы к сообщениям
Вы можете скачивать файлы