(Soundtrack) [CD] 80's Movie Hits - 2007, FLAC (tracks+.cue), lossless


Статистика раздачи [Обновить пиров]
Размер:  874 MB   |    Зарегистрирован:  1 год 1 месяц   |    Скачан:  2 раза

Полного источника не было: 4 дня

Личеров:  6  [  0 KB/s  ]   Подробная статистика пиров
 
   
 
 
 

[Цитировать]

Various Artists - 80's Movie Hits
Жанр: Soundtrack
Год выпуска диска: 2007
Издатель (лейбл): Universal Music TV
Каталог: 9838867
Аудио кодек: FLAC (*.flac)
Тип рипа: tracks+.cue
Битрейт аудио: lossless
Продолжительность: 02:11:12
Источник: what.cd
Наличие сканов в содержимом раздачи: нет

CD 1

Продолжительность: 01:10:31
Треклист:
01 - Simple Minds - Don't You (Forget About Me) (04:21)
02 - Huey Lewis & The News - The Power of Love (03:54)
03 - Ray Parker Jr. - Ghostbusters (04:04)
04 - Kenny Loggins - Footloose (03:46)
05 - Harold Faltermeyer - Axel F (03:00)
06 - Frank Stallone - Far From Over (03:53)
07 - Giorgio Moroder & Phil Oakey - Together in Electric Dreams (03:50)
08 - Michael Sembello - Maniac (04:02)
09 - Jan Hammer - Crockett's Theme (03:24)
10 - Steve Winwood - Higher Love (05:47)
11 - Yello - Oh Yeah (03:05)
12 - Joe Cocker & Jennifer Warnes - Up Where We Belong (03:46)
13 - Roxette - It Must Have Been Love (04:18)
14 - Maria McKee - Show Me Heaven (03:43)
15 - Chris De Burgh - The Lady In Red (04:13)
16 - The Righteous Brothers - You've Lost That Lovin' Feeling (03:37)
17 - Echo & The Bunnymen - People Are Strange (03:37)
18 - Suzanne Vega - Left of Center (03:33)

.log

Exact Audio Copy V1.0 beta 2 from 29. April 2011
EAC extraction logfile from 16. February 2012, 15:23
Various / 80s Movie Hits CD1
Used drive : Optiarc DVD RW AD-7240S Adapter: 2 ID: 0
Read mode : SecureUtilize accurate stream : YesDefeat audio cache : YesMake use of C2 pointers : No
Read offset correction : 48Overread into Lead-In and Lead-Out : NoFill up missing offset samples with silence : YesDelete leading and trailing silent blocks : NoNull samples used in CRC calculations : YesUsed interface : Native Win32 interface for Win NT & 2000Gap handling : Appended to previous track
Used output format : User Defined EncoderSelected bitrate : 1024 kBit/sQuality : HighAdd ID3 tag : NoCommand line compressor : D:\Program Files (x86)\FLAC\flac.exeAdditional command line options : -8 -V -T "ARTIST=%artist%" -T "TITLE=%title%" -T "ALBUM=%albumtitle%" -T "DATE=%year%" -T "TRACKNUMBER=%tracknr%" -T "GENRE=%genre%" -T "PERFORMER=%albuminterpret%" -T "COMPOSER=%composer%" %haslyrics%--tag-from-file=LYRICS
TOC of the extracted CD
Track | Start | Length | Start sector | End sector --------------------------------------------------------- 1 | 0:00.00 | 4:22.68 | 0 | 19717 2 | 4:22.68 | 3:56.07 | 19718 | 37424 3 | 8:19.00 | 4:06.15 | 37425 | 55889 4 | 12:25.15 | 3:48.41 | 55890 | 73030 5 | 16:13.56 | 3:02.21 | 73031 | 86701 6 | 19:16.02 | 3:55.24 | 86702 | 104350 7 | 23:11.26 | 3:51.66 | 104351 | 121741 8 | 27:03.17 | 4:04.22 | 121742 | 140063 9 | 31:07.39 | 3:26.26 | 140064 | 155539 10 | 34:33.65 | 5:49.17 | 155540 | 181731 11 | 40:23.07 | 3:07.18 | 181732 | 195774 12 | 43:30.25 | 3:48.54 | 195775 | 212928 13 | 47:19.04 | 4:19.61 | 212929 | 232414 14 | 51:38.65 | 3:45.04 | 232415 | 249293 15 | 55:23.69 | 4:15.41 | 249294 | 268459 16 | 59:39.35 | 3:39.32 | 268460 | 284916 17 | 63:18.67 | 3:39.32 | 284917 | 301373 18 | 66:58.24 | 3:33.02 | 301374 | 317350
Track 1
Filename F:\what.cd clean rips\Various - 80s Movie Hits\CD1\01 - Simple Minds - Don't You (Forget About Me).wav
Pre-gap length 0:00:02.00
Peak level 99.8 % Extraction speed 2.3 X Track quality 99.9 % Test CRC 27E2A482 Copy CRC 27E2A482 Track not present in AccurateRip database Copy OK
Track 2
Filename F:\what.cd clean rips\Various - 80s Movie Hits\CD1\02 - Huey Lewis & The News - The Power Of Love.wav
Pre-gap length 0:00:01.76
Peak level 99.8 % Extraction speed 2.8 X Track quality 100.0 % Test CRC 11AA3C3F Copy CRC 11AA3C3F Track not present in AccurateRip database Copy OK
Track 3
Filename F:\what.cd clean rips\Various - 80s Movie Hits\CD1\03 - Ray Parker Jr. - Ghostbusters.wav
Pre-gap length 0:00:01.76
Peak level 99.8 % Extraction speed 3.0 X Track quality 100.0 % Test CRC 1793D2F8 Copy CRC 1793D2F8 Track not present in AccurateRip database Copy OK
Track 4
Filename F:\what.cd clean rips\Various - 80s Movie Hits\CD1\04 - Kenny Loggins - Footloose.wav
Pre-gap length 0:00:01.76
Peak level 99.8 % Extraction speed 3.2 X Track quality 100.0 % Test CRC 955DFE5D Copy CRC 955DFE5D Track not present in AccurateRip database Copy OK
Track 5
Filename F:\what.cd clean rips\Various - 80s Movie Hits\CD1\05 - Harold Faltermeyer - Axel F.wav
Pre-gap length 0:00:01.76
Peak level 99.8 % Extraction speed 2.7 X Track quality 99.9 % Test CRC AB695D76 Copy CRC AB695D76 Track not present in AccurateRip database Copy OK
Track 6
Filename F:\what.cd clean rips\Various - 80s Movie Hits\CD1\06 - Frank Stallone - Far From Over.wav
Pre-gap length 0:00:01.76
Peak level 99.8 % Extraction speed 3.5 X Track quality 100.0 % Test CRC E28ECAFF Copy CRC E28ECAFF Track not present in AccurateRip database Copy OK
Track 7
Filename F:\what.cd clean rips\Various - 80s Movie Hits\CD1\07 - Phil Oakey & Giorgio Moroder - Together In Electric Dreams.wav
Pre-gap length 0:00:01.76
Peak level 91.9 % Extraction speed 3.7 X Track quality 100.0 % Test CRC B8ABE220 Copy CRC B8ABE220 Track not present in AccurateRip database Copy OK
Track 8
Filename F:\what.cd clean rips\Various - 80s Movie Hits\CD1\08 - Michael Sembello - Maniac.wav
Pre-gap length 0:00:01.76
Peak level 99.8 % Extraction speed 3.9 X Track quality 100.0 % Test CRC D015471A Copy CRC D015471A Track not present in AccurateRip database Copy OK
Track 9
Filename F:\what.cd clean rips\Various - 80s Movie Hits\CD1\09 - Jan Hammer - Crockett's Theme.wav
Pre-gap length 0:00:01.76
Peak level 99.8 % Extraction speed 3.9 X Track quality 100.0 % Test CRC FF0E07C0 Copy CRC FF0E07C0 Track not present in AccurateRip database Copy OK
Track 10
Filename F:\what.cd clean rips\Various - 80s Movie Hits\CD1\10 - Steve Winwood - Higher Love.wav
Pre-gap length 0:00:01.76
Peak level 99.8 % Extraction speed 4.0 X Track quality 99.9 % Test CRC 65A9A516 Copy CRC 65A9A516 Track not present in AccurateRip database Copy OK
Track 11
Filename F:\what.cd clean rips\Various - 80s Movie Hits\CD1\11 - Yello - Oh Yeah.wav
Pre-gap length 0:00:01.76
Peak level 99.8 % Extraction speed 3.6 X Track quality 99.9 % Test CRC 6037AB50 Copy CRC 6037AB50 Track not present in AccurateRip database Copy OK
Track 12
Filename F:\what.cd clean rips\Various - 80s Movie Hits\CD1\12 - Joe Cocker & Jennifer Warnes - Up Where We Belong.wav
Pre-gap length 0:00:01.76
Peak level 99.8 % Extraction speed 3.9 X Track quality 99.9 % Test CRC 18F24E92 Copy CRC 18F24E92 Track not present in AccurateRip database Copy OK
Track 13
Filename F:\what.cd clean rips\Various - 80s Movie Hits\CD1\13 - Roxette - It Must Have Been Love.wav
Pre-gap length 0:00:01.76
Peak level 92.2 % Extraction speed 4.7 X Track quality 100.0 % Test CRC FAF818FA Copy CRC FAF818FA Track not present in AccurateRip database Copy OK
Track 14
Filename F:\what.cd clean rips\Various - 80s Movie Hits\CD1\14 - Maria McKee - Show Me Heaven.wav
Pre-gap length 0:00:01.76
Peak level 99.8 % Extraction speed 4.7 X Track quality 100.0 % Test CRC 3206FFAB Copy CRC 3206FFAB Accurately ripped (confidence 1) [13BF9A12] (AR v1) Copy OK
Track 15
Filename F:\what.cd clean rips\Various - 80s Movie Hits\CD1\15 - Chris de Burgh - The Lady In Red.wav
Pre-gap length 0:00:01.76
Peak level 99.8 % Extraction speed 5.0 X Track quality 100.0 % Test CRC A27D454B Copy CRC A27D454B Accurately ripped (confidence 1) [F1C7153B] (AR v1) Copy OK
Track 16
Filename F:\what.cd clean rips\Various - 80s Movie Hits\CD1\16 - The Righteous Brothers - You've Lost That Lovin' Feeling.wav
Pre-gap length 0:00:01.76
Peak level 96.4 % Extraction speed 4.4 X Track quality 99.9 % Test CRC 6A48A2D8 Copy CRC 6A48A2D8 Accurately ripped (confidence 1) [E49D7CF9] (AR v1) Copy OK
Track 17
Filename F:\what.cd clean rips\Various - 80s Movie Hits\CD1\17 - Echo & The Bunnymen - People Are Strange.wav
Pre-gap length 0:00:01.76
Peak level 99.8 % Extraction speed 4.5 X Track quality 99.9 % Test CRC EB440E33 Copy CRC EB440E33 Accurately ripped (confidence 1) [6C443550] (AR v1) Copy OK
Track 18
Filename F:\what.cd clean rips\Various - 80s Movie Hits\CD1\18 - Suzanne Vega feat. Joe Jackson - Left Of Centre.wav
Pre-gap length 0:00:01.76
Peak level 99.8 % Extraction speed 5.2 X Track quality 100.0 % Test CRC E2FB98F3 Copy CRC E2FB98F3 Accurately ripped (confidence 1) [3E3A426C] (AR v1) Copy OK
5 track(s) accurately ripped13 track(s) not present in the AccurateRip database
Some tracks could not be verified as accurate
No errors occurred
End of status report
==== Log checksum 8AFD9D9945E519F8BC7643DEB2D11544F617F58E212E8C5E484F0925D23FE4BB ====

.cue

REM GENRE RockREM DATE 2007REM DISCID E8108712REM COMMENT "ExactAudioCopy v1.0b2"PERFORMER "Various"TITLE "80s Movie Hits CD1"FILE "01 - Simple Minds - Don't You (Forget About Me).wav" WAVE TRACK 01 AUDIO TITLE "Don't You (Forget About Me)" PERFORMER "Simple Minds" ISRC GBAAA0200639 INDEX 01 00:00:00 TRACK 02 AUDIO TITLE "The Power Of Love" PERFORMER "Huey Lewis & The News" ISRC USCH38500008 INDEX 00 04:21:11FILE "02 - Huey Lewis & The News - The Power Of Love.wav" WAVE INDEX 01 00:00:00 TRACK 03 AUDIO TITLE "Ghostbusters" PERFORMER "Ray Parker Jr." ISRC USAR18400117 INDEX 00 03:54:25FILE "03 - Ray Parker Jr. - Ghostbusters.wav" WAVE INDEX 01 00:00:00 TRACK 04 AUDIO TITLE "Footloose" PERFORMER "Kenny Loggins" ISRC USSM18400522 INDEX 00 04:04:33FILE "04 - Kenny Loggins - Footloose.wav" WAVE INDEX 01 00:00:00 TRACK 05 AUDIO TITLE "Axel F" PERFORMER "Harold Faltermeyer" ISRC USMC18416586 INDEX 00 03:46:59FILE "05 - Harold Faltermeyer - Axel F.wav" WAVE INDEX 01 00:00:00 TRACK 06 AUDIO TITLE "Far From Over" PERFORMER "Frank Stallone" ISRC USA258300060 INDEX 00 03:00:39FILE "06 - Frank Stallone - Far From Over.wav" WAVE INDEX 01 00:00:00 TRACK 07 AUDIO TITLE "Together In Electric Dreams" PERFORMER "Phil Oakey & Giorgio Moroder" ISRC GBAAA8400009 INDEX 00 03:53:42FILE "07 - Phil Oakey & Giorgio Moroder - Together In Electric Dreams.wav" WAVE INDEX 01 00:00:00 TRACK 08 AUDIO TITLE "Maniac" PERFORMER "Michael Sembello" ISRC USPR38302462 INDEX 00 03:50:09FILE "08 - Michael Sembello - Maniac.wav" WAVE INDEX 01 00:00:00 TRACK 09 AUDIO TITLE "Crockett's Theme" PERFORMER "Jan Hammer" ISRC USMC18622096 INDEX 00 04:02:40FILE "09 - Jan Hammer - Crockett's Theme.wav" WAVE INDEX 01 00:00:00 TRACK 10 AUDIO TITLE "Higher Love" PERFORMER "Steve Winwood" ISRC GBAAN8600003 INDEX 00 03:24:44FILE "10 - Steve Winwood - Higher Love.wav" WAVE INDEX 01 00:00:00 TRACK 11 AUDIO TITLE "Oh Yeah" PERFORMER "Yello" ISRC DED579506200 INDEX 00 05:47:35FILE "11 - Yello - Oh Yeah.wav" WAVE INDEX 01 00:00:00 TRACK 12 AUDIO TITLE "Up Where We Belong" PERFORMER "Joe Cocker & Jennifer Warnes" ISRC USIR28200024 INDEX 00 03:05:36FILE "12 - Joe Cocker & Jennifer Warnes - Up Where We Belong.wav" WAVE INDEX 01 00:00:00 TRACK 13 AUDIO TITLE "It Must Have Been Love" PERFORMER "Roxette" ISRC SEAMA8777131 INDEX 00 03:46:72FILE "13 - Roxette - It Must Have Been Love.wav" WAVE INDEX 01 00:00:00 TRACK 14 AUDIO TITLE "Show Me Heaven" PERFORMER "Maria McKee" ISRC USIR10000625 INDEX 00 04:18:04FILE "14 - Maria McKee - Show Me Heaven.wav" WAVE INDEX 01 00:00:00 TRACK 15 AUDIO TITLE "The Lady In Red" PERFORMER "Chris de Burgh" ISRC GBAAM8600001 INDEX 00 03:43:22FILE "15 - Chris de Burgh - The Lady In Red.wav" WAVE INDEX 01 00:00:00 TRACK 16 AUDIO TITLE "You've Lost That Lovin' Feeling" PERFORMER "The Righteous Brothers" ISRC USPG19090022 INDEX 00 04:13:59FILE "16 - The Righteous Brothers - You've Lost That Lovin' Feeling.wav" WAVE INDEX 01 00:00:00 TRACK 17 AUDIO TITLE "People Are Strange" PERFORMER "Echo & The Bunnymen" ISRC GBAHT0200304 INDEX 00 03:37:50FILE "17 - Echo & The Bunnymen - People Are Strange.wav" WAVE INDEX 01 00:00:00 TRACK 18 AUDIO TITLE "Left Of Centre" PERFORMER "Suzanne Vega feat. Joe Jackson" ISRC USAM18600020 INDEX 00 03:37:50FILE "18 - Suzanne Vega feat. Joe Jackson - Left Of Centre.wav" WAVE INDEX 01 00:00:00

CD 2

Продолжительность: 01:00:41
Треклист:
01 - Irene Cara - Flashdance ... What a Feeling (03:53)
02 - The Pointer Sisters - I'm So Excited (03:50)
03 - The Contours - Do You Love Me (02:51)
04 - Iggy Pop - Real Wild Child (Wild One) (03:31)
05 - Billy Ocean - When the Going Gets Tough, The Tough Get Going (03:58)
06 - Giorgio Moroder - Chase (03:38)
07 - Survivor - Eye Of The Tiger (03:59)
08 - Extreme - Play With Me (03:28)
09 - Creedence Clearwater Revival - Bad Moon Rising (02:19)
10 - The Psychedelic Furs - Pretty in Pink (03:53)
11 - James Brown - I Got You (I Feel Good) (02:46)
12 - The Temptations - My Girl (02:42)
13 - Muddy Waters - Mannish Boy (02:55)
14 - Aretha Franklin - Think (02:13)
15 - Marvin Gaye - I Heard It Through The Grapevine (03:09)
16 - Smokey Robinson & The Miracles - The Tracks of My Tears (02:53)
17 - Grace Jones - I've Seen That Face Before (04:28)
18 - The Righteous Brothers - Unchained Melody (03:37)

.log

Exact Audio Copy V1.0 beta 2 from 29. April 2011
EAC extraction logfile from 16. February 2012, 17:48
Various / 80s Movie Hits CD2
Used drive : Optiarc DVD RW AD-7240S Adapter: 2 ID: 0
Read mode : SecureUtilize accurate stream : YesDefeat audio cache : YesMake use of C2 pointers : No
Read offset correction : 48Overread into Lead-In and Lead-Out : NoFill up missing offset samples with silence : YesDelete leading and trailing silent blocks : NoNull samples used in CRC calculations : YesUsed interface : Native Win32 interface for Win NT & 2000Gap handling : Appended to previous track
Used output format : User Defined EncoderSelected bitrate : 1024 kBit/sQuality : HighAdd ID3 tag : NoCommand line compressor : D:\Program Files (x86)\FLAC\flac.exeAdditional command line options : -8 -V -T "ARTIST=%artist%" -T "TITLE=%title%" -T "ALBUM=%albumtitle%" -T "DATE=%year%" -T "TRACKNUMBER=%tracknr%" -T "GENRE=%genre%" -T "PERFORMER=%albuminterpret%" -T "COMPOSER=%composer%" %haslyrics%--tag-from-file=LYRICS
TOC of the extracted CD
Track | Start | Length | Start sector | End sector --------------------------------------------------------- 1 | 0:00.00 | 3:54.62 | 0 | 17611 2 | 3:54.62 | 3:52.35 | 17612 | 35046 3 | 7:47.22 | 2:53.35 | 35047 | 48056 4 | 10:40.57 | 3:33.39 | 48057 | 64070 5 | 14:14.21 | 4:00.42 | 64071 | 82112 6 | 18:14.63 | 3:39.63 | 82113 | 98600 7 | 21:54.51 | 4:00.72 | 98601 | 116672 8 | 25:55.48 | 3:30.24 | 116673 | 132446 9 | 29:25.72 | 2:20.60 | 132447 | 143006 10 | 31:46.57 | 3:54.69 | 143007 | 160625 11 | 35:41.51 | 2:48.22 | 160626 | 173247 12 | 38:29.73 | 2:44.04 | 173248 | 185551 13 | 41:14.02 | 2:57.20 | 185552 | 198846 14 | 44:11.22 | 2:15.13 | 198847 | 208984 15 | 46:26.35 | 3:11.41 | 208985 | 223350 16 | 49:38.01 | 2:55.09 | 223351 | 236484 17 | 52:33.10 | 4:30.33 | 236485 | 256767 18 | 57:03.43 | 3:37.67 | 256768 | 273109
Track 1
Filename F:\what.cd clean rips\Various - 80s Movie Hits\CD2\01 - Irene Cara - Flashdance - What A Feeling.wav
Pre-gap length 0:00:02.00
Peak level 99.8 % Extraction speed 2.5 X Track quality 100.0 % Test CRC E2EE2983 Copy CRC E2EE2983 Accurately ripped (confidence 1) [073A3271] (AR v1) Copy OK
Track 2
Filename F:\what.cd clean rips\Various - 80s Movie Hits\CD2\02 - The Pointer Sisters - I'm So Excited.wav
Pre-gap length 0:00:01.76
Peak level 99.8 % Extraction speed 2.8 X Track quality 100.0 % Test CRC 436E81D0 Copy CRC 436E81D0 Accurately ripped (confidence 1) [ADEE4C1B] (AR v1) Copy OK
Track 3
Filename F:\what.cd clean rips\Various - 80s Movie Hits\CD2\03 - The Contours - Do You Love Me.wav
Pre-gap length 0:00:01.76
Peak level 92.9 % Extraction speed 2.8 X Track quality 100.0 % Test CRC 7D646784 Copy CRC 7D646784 Accurately ripped (confidence 1) [9B7BD7E2] (AR v1) Copy OK
Track 4
Filename F:\what.cd clean rips\Various - 80s Movie Hits\CD2\04 - Iggy Pop - Real Wild Child.wav
Pre-gap length 0:00:01.76
Peak level 93.2 % Extraction speed 3.1 X Track quality 100.0 % Test CRC 69886400 Copy CRC 69886400 Accurately ripped (confidence 1) [A72BDEC8] (AR v1) Copy OK
Track 5
Filename F:\what.cd clean rips\Various - 80s Movie Hits\CD2\05 - Billy Ocean - When The Going Gets Tough.wav
Pre-gap length 0:00:01.76
Peak level 94.4 % Extraction speed 3.3 X Track quality 100.0 % Test CRC 74448B41 Copy CRC 74448B41 Accurately ripped (confidence 1) [03DD7AF0] (AR v1) Copy OK
Track 6
Filename F:\what.cd clean rips\Various - 80s Movie Hits\CD2\06 - Giorgio Moroder - Chase.wav
Pre-gap length 0:00:01.76
Peak level 92.1 % Extraction speed 3.4 X Track quality 100.0 % Test CRC 6676C3CD Copy CRC 6676C3CD Accurately ripped (confidence 1) [3581C23D] (AR v1) Copy OK
Track 7
Filename F:\what.cd clean rips\Various - 80s Movie Hits\CD2\07 - Survivor - Eye Of The Tiger.wav
Pre-gap length 0:00:01.76
Peak level 99.8 % Extraction speed 3.6 X Track quality 100.0 % Test CRC E6792E1B Copy CRC E6792E1B Accurately ripped (confidence 1) [3AD421C2] (AR v1) Copy OK
Track 8
Filename F:\what.cd clean rips\Various - 80s Movie Hits\CD2\08 - Extreme - Play With Me.wav
Pre-gap length 0:00:01.76
Peak level 99.8 % Extraction speed 3.8 X Track quality 100.0 % Test CRC 393D8D5E Copy CRC 393D8D5E Accurately ripped (confidence 1) [FE52B077] (AR v1) Copy OK
Track 9
Filename F:\what.cd clean rips\Various - 80s Movie Hits\CD2\09 - Creedence Clearwater Revival - Bad Moon Rising.wav
Pre-gap length 0:00:01.76
Peak level 97.7 % Extraction speed 3.6 X Track quality 100.0 % Test CRC DDD9FD65 Copy CRC DDD9FD65 Accurately ripped (confidence 1) [FF993BAD] (AR v1) Copy OK
Track 10
Filename F:\what.cd clean rips\Various - 80s Movie Hits\CD2\10 - The Psychedelic Furs - Pretty In Pink.wav
Pre-gap length 0:00:01.76
Peak level 97.7 % Extraction speed 4.0 X Track quality 100.0 % Test CRC 6C633606 Copy CRC 6C633606 Accurately ripped (confidence 1) [7A189A4A] (AR v1) Copy OK
Track 11
Filename F:\what.cd clean rips\Various - 80s Movie Hits\CD2\11 - James Brown - I Got You.wav
Pre-gap length 0:00:01.76
Peak level 99.8 % Extraction speed 3.3 X Track quality 99.9 % Test CRC 8C0BE179 Copy CRC 8C0BE179 Accurately ripped (confidence 1) [F979CBDA] (AR v1) Copy OK
Track 12
Filename F:\what.cd clean rips\Various - 80s Movie Hits\CD2\12 - The Temptations - My Girl.wav
Pre-gap length 0:00:01.74
Peak level 97.7 % Extraction speed 4.1 X Track quality 100.0 % Test CRC C060CC7B Copy CRC C060CC7B Accurately ripped (confidence 1) [44CE729B] (AR v1) Copy OK
Track 13
Filename F:\what.cd clean rips\Various - 80s Movie Hits\CD2\13 - Muddy Waters - Mannish Boy.wav
Pre-gap length 0:00:01.76
Peak level 93.3 % Extraction speed 3.6 X Track quality 99.9 % Test CRC 9EAFC5CB Copy CRC 9EAFC5CB Accurately ripped (confidence 1) [26E839D5] (AR v1) Copy OK
Track 14
Filename F:\what.cd clean rips\Various - 80s Movie Hits\CD2\14 - Aretha Franklin - Think.wav
Pre-gap length 0:00:01.76
Peak level 99.8 % Extraction speed 4.1 X Track quality 100.0 % Test CRC 7CC01DBF Copy CRC 7CC01DBF Accurately ripped (confidence 1) [07C3D51F] (AR v1) Copy OK
Track 15
Filename F:\what.cd clean rips\Various - 80s Movie Hits\CD2\15 - Marvin Gaye - I Heard It Through The Grapevine.wav
Pre-gap length 0:00:01.76
Peak level 97.7 % Extraction speed 3.8 X Track quality 99.9 % Test CRC C283A518 Copy CRC C283A518 Accurately ripped (confidence 1) [3403BF1B] (AR v1) Copy OK
Track 16
Filename F:\what.cd clean rips\Various - 80s Movie Hits\CD2\16 - Smokey Robinson & The Miracles - The Track Of My Tears.wav
Pre-gap length 0:00:01.76
Peak level 96.3 % Extraction speed 4.5 X Track quality 100.0 % Test CRC 678FB2DF Copy CRC 678FB2DF Accurately ripped (confidence 1) [A7AE61E7] (AR v1) Copy OK
Track 17
Filename F:\what.cd clean rips\Various - 80s Movie Hits\CD2\17 - Grace Jones - I've Seen That Face Before.wav
Pre-gap length 0:00:01.76
Peak level 99.8 % Extraction speed 4.9 X Track quality 100.0 % Test CRC 008B726E Copy CRC 008B726E Accurately ripped (confidence 1) [F10EB757] (AR v1) Copy OK
Track 18
Filename F:\what.cd clean rips\Various - 80s Movie Hits\CD2\18 - The Righteous Brothers - Unchained Melody.wav
Pre-gap length 0:00:01.76
Peak level 99.8 % Extraction speed 5.0 X Track quality 100.0 % Test CRC 7A9243EA Copy CRC 7A9243EA Accurately ripped (confidence 1) [50CD945B] (AR v1) Copy OK
All tracks accurately ripped
No errors occurred
End of status report
==== Log checksum 26DBAE9F3A06B5C38818A21F6551D8A3A9EB7F0BE348375F67009E6EE1BB5173 ====

.cue

REM GENRE SoundtrackREM DATE 2007REM DISCID 100E3912REM COMMENT "ExactAudioCopy v1.0b2"PERFORMER "Various"TITLE "80s Movie Hits CD2"FILE "01 - Irene Cara - Flashdance - What A Feeling.wav" WAVE TRACK 01 AUDIO TITLE "Flashdance - What A Feeling" PERFORMER "Irene Cara" ISRC USIR20200210 INDEX 01 00:00:00 TRACK 02 AUDIO TITLE "I'm So Excited" PERFORMER "The Pointer Sisters" ISRC USRC18207960 INDEX 00 03:53:05FILE "02 - The Pointer Sisters - I'm So Excited.wav" WAVE INDEX 01 00:00:00 TRACK 03 AUDIO TITLE "Do You Love Me?" PERFORMER "The Contours" ISRC USMO16200263 INDEX 00 03:50:53FILE "03 - The Contours - Do You Love Me.wav" WAVE INDEX 01 00:00:00 TRACK 04 AUDIO TITLE "Real Wild Child" PERFORMER "Iggy Pop" ISRC USAM18600001 INDEX 00 02:51:53FILE "04 - Iggy Pop - Real Wild Child.wav" WAVE INDEX 01 00:00:00 TRACK 05 AUDIO TITLE "When The Going Gets Tough" PERFORMER "Billy Ocean" ISRC GBAHK9700110 INDEX 00 03:31:57FILE "05 - Billy Ocean - When The Going Gets Tough.wav" WAVE INDEX 01 00:00:00 TRACK 06 AUDIO TITLE "Chase" PERFORMER "Giorgio Moroder" ISRC USPR37900070 INDEX 00 03:58:60FILE "06 - Giorgio Moroder - Chase.wav" WAVE INDEX 01 00:00:00 TRACK 07 AUDIO TITLE "Eye Of The Tiger" PERFORMER "Survivor" ISRC USVR19600010 INDEX 00 03:38:06FILE "07 - Survivor - Eye Of The Tiger.wav" WAVE INDEX 01 00:00:00 TRACK 08 AUDIO TITLE "Play With Me" PERFORMER "Extreme" ISRC USAM18923370 INDEX 00 03:59:15FILE "08 - Extreme - Play With Me.wav" WAVE INDEX 01 00:00:00 TRACK 09 AUDIO TITLE "Bad Moon Rising" PERFORMER "Creedence Clearwater Revival" ISRC USFI86900055 INDEX 00 03:28:42FILE "09 - Creedence Clearwater Revival - Bad Moon Rising.wav" WAVE INDEX 01 00:00:00 TRACK 10 AUDIO TITLE "Pretty In Pink" PERFORMER "The Psychedelic Furs" ISRC GBBBN9902398 INDEX 00 02:19:03FILE "10 - The Psychedelic Furs - Pretty In Pink.wav" WAVE INDEX 01 00:00:00 TRACK 11 AUDIO TITLE "I Got You" PERFORMER "James Brown" ISRC USF066500010 INDEX 00 03:53:12FILE "11 - James Brown - I Got You.wav" WAVE INDEX 01 00:00:00 TRACK 12 AUDIO TITLE "My Girl" PERFORMER "The Temptations" ISRC USMO16490001 INDEX 00 02:46:41FILE "12 - The Temptations - My Girl.wav" WAVE INDEX 01 00:00:00 TRACK 13 AUDIO TITLE "Mannish Boy" PERFORMER "Muddy Waters" ISRC USMC15546488 INDEX 00 02:42:22FILE "13 - Muddy Waters - Mannish Boy.wav" WAVE INDEX 01 00:00:00 TRACK 14 AUDIO TITLE "Think" PERFORMER "Aretha Franklin" ISRC USAT20614052 INDEX 00 02:55:38FILE "14 - Aretha Franklin - Think.wav" WAVE INDEX 01 00:00:00 TRACK 15 AUDIO TITLE "I Heard It Through The Grapevine" PERFORMER "Marvin Gaye" ISRC USMO16884718 INDEX 00 02:13:31FILE "15 - Marvin Gaye - I Heard It Through The Grapevine.wav" WAVE INDEX 01 00:00:00 TRACK 16 AUDIO TITLE "The Track Of My Tears" PERFORMER "Smokey Robinson & The Miracles" ISRC USMO16572026 INDEX 00 03:09:59FILE "16 - Smokey Robinson & The Miracles - The Track Of My Tears.wav" WAVE INDEX 01 00:00:00 TRACK 17 AUDIO TITLE "I've Seen That Face Before" PERFORMER "Grace Jones" ISRC USIR28100272 INDEX 00 02:53:27FILE "17 - Grace Jones - I've Seen That Face Before.wav" WAVE INDEX 01 00:00:00 TRACK 18 AUDIO TITLE "Unchained Melody" PERFORMER "The Righteous Brothers" ISRC USPG16590023 INDEX 00 04:28:51FILE "18 - The Righteous Brothers - Unchained Melody.wav" WAVE INDEX 01 00:00:00
[teatrix.ru].t10241.torrent 
Торрент: Зарегистрирован [ 2015-11-01 20:51 ] · FA84BF2883698079BEF845A908A3D1DD9B6928C1

Скачать .torrent

Скачать

21 KB

Статус: проверено
Скачан: 2 раз
Размер: 874 MB
terms.php



Быстрый ответ

Имя:

      
Для отправки сообщений необходимо включить JavaScript
Показать сообщения:    

Текущее время: 03-Дек 07:39

Часовой пояс: UTC + 3


Вы можете начинать темы
Вы можете отвечать на сообщения
Вы не можете редактировать свои сообщения
Вы не можете удалять свои сообщения
Вы не можете голосовать в опросах
Вы не можете прикреплять файлы к сообщениям
Вы можете скачивать файлы