(Score) Поворот судьбы / A Simple Twist of Fate (by Cliff Eidelman) - 1994, WavPack (image+.cue), lossless


Статистика раздачи [Обновить пиров]
Размер:  129 MB   |    Зарегистрирован:  1 год 1 месяц   |    Скачан:  0 раз

Полного источника не было: Никогда

Личеров:  6  [  0 KB/s  ]   Подробная статистика пиров
 
   
 
 
 

[Цитировать]

Поворот судьбы / A Simple Twist of Fate
Жанр: Score
Композитор: Cliff Eidelman
Год выпуска диска: 1994
Год выпуска фильма: 1994
Страна-производитель диска: США
Издатель (лейбл): Varese Sarabande
Номер по каталогу: VSD 5538
Аудиокодек: WavPack (*.wv)
Тип рипа: image+.cue
Битрейт аудио: lossless
Продолжительность: 28:04
Источник: ослосеть
Наличие сканов в содержимом раздачи: да
Треклист:
01. A Simple Twist of Fate (05:07)
02. Matilda's Fantasy (01:27)
03. The Bracelet (01:25)
04. Prelude to Tanny's Fate (03:04)
05. Floating on Air (01:58)
06. Red Is the Rose (01:38)
07. Okay You're Free (01:50)
08. Into the Light (03:09)
09. A New Life (03:06)
10. Red Is the Rose - Reprise (00:42)
11. Transcending (02:25)
12. Michael's Theme (02:07)

Лог создания рипа

Exact Audio Copy V0.99 prebeta 4 from 23. January 2008
EAC extraction logfile from 28. March 2009, 16:17
Cliff Eidelman / A SIMPLE TWIST OF FATE
Used drive : HL-DT-STDVDRAM GH20NS10 Adapter: 0 ID: 0
Read mode : SecureUtilize accurate stream : YesDefeat audio cache : YesMake use of C2 pointers : No
Read offset correction : 667Overread into Lead-In and Lead-Out : NoFill up missing offset samples with silence : YesDelete leading and trailing silent blocks : NoNull samples used in CRC calculations : YesUsed interface : Native Win32 interface for Win NT & 2000
Used output format : User Defined EncoderSelected bitrate : 768 kBit/sQuality : HighAdd ID3 tag : NoCommand line compressor : I:\Wavpack\wavpack.exeAdditional command line options : -w "Artist=%a" -w "Album=%g" -w "Year=%y" -w "Genre=%m" -hh -m -t %s %d
TOC of the extracted CD
Track | Start | Length | Start sector | End sector --------------------------------------------------------- 1 | 0:00.00 | 5:07.28 | 0 | 23052 2 | 5:07.28 | 1:27.27 | 23053 | 29604 3 | 6:34.55 | 1:25.18 | 29605 | 35997 4 | 7:59.73 | 3:04.02 | 35998 | 49799 5 | 11:04.00 | 1:58.30 | 49800 | 58679 6 | 13:02.30 | 1:38.28 | 58680 | 66057 7 | 14:40.58 | 1:50.62 | 66058 | 74369 8 | 16:31.45 | 3:09.53 | 74370 | 88597 9 | 19:41.23 | 3:06.60 | 88598 | 102607 10 | 22:48.08 | 0:42.62 | 102608 | 105819 11 | 23:30.70 | 2:25.50 | 105820 | 116744 12 | 25:56.45 | 2:07.03 | 116745 | 126272
Range status and errors
Selected range
Filename C:\A SIMPLE TWIST OF FATE_Cliff Eidelman\Cliff Eidelman - A SIMPLE TWIST OF FATE.wav
Peak level 98.8 % Range quality 100.0 % Test CRC E3A72E5A Copy CRC E3A72E5A Copy OK
No errors occurred
AccurateRip summary
Track 1 accurately ripped (confidence 2) [639594AD]Track 2 accurately ripped (confidence 2) [C0C348D6]Track 3 not present in databaseTrack 4 accurately ripped (confidence 2) [3DFC6BD5]Track 5 accurately ripped (confidence 2) [9329C763]Track 6 not present in databaseTrack 7 not present in databaseTrack 8 not present in databaseTrack 9 not present in databaseTrack 10 accurately ripped (confidence 2) [62E37864]Track 11 accurately ripped (confidence 2) [5AC87BF5]Track 12 not present in database
6 track(s) accurately ripped 6 track(s) not present in the AccurateRip database
Some tracks could not be verified as accurate
End of status report

Содержание индексной карты (.CUE)

REM GENRE SoundtrackREM DATE 1994REM DISCID AC06930CREM COMMENT "ExactAudioCopy v0.99pb4"CATALOG 0000000000000PERFORMER "Cliff Eidelman"TITLE "A Simple Twist Of Fate"FILE "Cliff Eidelman - A Simple Twist Of Fate.wv" WAVE TRACK 01 AUDIO TITLE "A Simple Twist Of Fate (Suite)" PERFORMER "Cliff Eidelman" INDEX 01 00:00:00 TRACK 02 AUDIO TITLE "Matilda's Fantasy" PERFORMER "Cliff Eidelman" INDEX 01 05:07:28 TRACK 03 AUDIO TITLE "The Bracelet" PERFORMER "Cliff Eidelman" INDEX 01 06:34:55 TRACK 04 AUDIO TITLE "Prelude To Tanny's Fate" PERFORMER "Cliff Eidelman" INDEX 01 07:59:73 TRACK 05 AUDIO TITLE "Floating On Air" PERFORMER "Cliff Eidelman" INDEX 01 11:04:00 TRACK 06 AUDIO TITLE "Red Is The Rose (Arranged By Cliff Eidelman)" PERFORMER "Cliff Eidelman" INDEX 01 13:02:30 TRACK 07 AUDIO TITLE "Okay You're Free" PERFORMER "Cliff Eidelman" INDEX 01 14:40:58 TRACK 08 AUDIO TITLE "Into The Light" PERFORMER "Cliff Eidelman" INDEX 01 16:31:45 TRACK 09 AUDIO TITLE "A New Life" PERFORMER "Cliff Eidelman" INDEX 00 19:38:73 INDEX 01 19:41:23 TRACK 10 AUDIO TITLE "Red Is The Rose - Reprise (Arranged By Cliff Eidelman)" PERFORMER "Cliff Eidelman" INDEX 01 22:48:08 TRACK 11 AUDIO TITLE "Trascending" PERFORMER "Cliff Eidelman" INDEX 00 23:29:63 INDEX 01 23:30:70 TRACK 12 AUDIO TITLE "Michael's Theme (Solo Piano Performed By Cliff Eidelman)" PERFORMER "Cliff Eidelman" INDEX 00 25:55:25 INDEX 01 25:56:45

Скриншоты спектра частот (png)

[teatrix.ru].t10242.torrent 
Торрент: Зарегистрирован [ 2015-11-01 20:51 ] · DD800AC0225066BAD122CDB4E15F519DE8006DA9

Скачать .torrent

Скачать

11 KB

Статус: проверено
Скачан: 0 раз
Размер: 129 MB
terms.php



Быстрый ответ

Имя:

      
Для отправки сообщений необходимо включить JavaScript
Показать сообщения:    

Текущее время: 08-Дек 23:06

Часовой пояс: UTC + 3


Вы можете начинать темы
Вы можете отвечать на сообщения
Вы не можете редактировать свои сообщения
Вы не можете удалять свои сообщения
Вы не можете голосовать в опросах
Вы не можете прикреплять файлы к сообщениям
Вы можете скачивать файлы